Агенты «Щ.И.Т.» / Agents of S.H.I.E.L.D. [S05] (2017) BDRip 720p | Невафильм, LostFilm

Ответить на тему
Статистика раздачи [Обновить пиров]
Размер:  53,52 GB   |    Зарегистрирован:  4 года 6 месяцев   |    .torrent скачан:  5 раз
Раздают:  4  [  0 KB/s  ]   Качают:  2  [  0 KB/s  ]   Подробная статистика пиров
   
 
Автор Сообщение

ExPlayer ®

Оффлайн

Медали


Пол: Мужской

Стаж: 9 лет 6 месяцев

Наличие запрета:

Сообщений: 60281

Откуда: korsars.pro

Отдача: 100 Mb/s

Загрузка: 100 Mb/s



AdGuard VPN - бесплатный, надёжный и быстрый VPN

Создавать темы 18-Ноя-2019 17:00

[Цитировать]

[img=right]https://b.Radikal больше не существует. Перезалейте изображение на другой хостинг!/b27/1910/05/4dbea27a983d.jpg[/img]
Название: Агенты «Щ.И.Т.»
Оригинальное название: Agents of S.H.I.E.L.D.
Год выхода пятого сезона: 2016-2017
Страна: США
Студия: ABC Studios, Disney-ABC Domestic Television, Marvel Studios
Продолжительность: 22 x 43 мин.
Жанр: фантастика, боевик, триллер, драма, приключения
Режиссер: Кевин Танчароэн, Джесси Бокко, Билл Джирхарт, ...
В ролях: Кларк Грегг, Минг-На, Бретт Далтон, Хлоя Беннет, Йен де Кестекер, Элизабет Хенстридж, Дж. Аугуст Ричардс, Шеннон Лусио, Рон Гласс, Роберт Дж. Стефенсон, Коби Смолдерс, Аарон Бер, Николь Дж. Батлер, Сара Дюмон, Леонор Варела, Иэн Харт, Дэвид Конрад, ...
Перевод:
- Профессиональный (дублированный) Невафильм
- Профессиональный (многоголосый, закадровый) LostFilm
О фильме: Действия сериала разворачиваются после событий фильма «Мстители». Агент Фил Колсон возвращается в правоохранительную организацию под названием Щ. И. Т., собрав небольшую команду профессионалов, он начинает работу над новыми делами, которые порой бывают очень странными…

Кодек: x264
Качество: BDRip 720p
Видео: 1280x720, ~5500 kbps, 23,976 fps
Аудио #1: AC-3, 2 ch, 192 kbps (Rus) - Невафильм
Аудио #2: AC-3, 6 ch, 640 kbps (Rus) - LostFilm
Аудио #3: DTS, 6 ch, 1509 kbps (Eng)
Субтитры: английские

MediaInfo первой серии

Общее
Уникальный идентификатор : 203917677151079881070559272297867269004 (0x99691DB6351CCA9593DC3482C810538C)
Полное имя : Agents of S.H.I.E.L.D. E01 S05 2017 BDRip 720p Nevafilm LostFilm.mkv
Формат : Matroska
Версия формата : Version 2
Размер файла : 2,43 Гбайт
Продолжительность : 43 м.
Общий поток : 8079 Кбит/сек
Дата кодирования : UTC 2019-10-20 17:30:15
Программа кодирования : mkvmerge v4.0.0 ('The Stars were mine') сборка от Jun 6 2010 16:18:42
Библиотека кодирования : libebml v1.0.0 + libmatroska v1.0.0
Видео
Идентификатор : 1
Формат : AVC
Формат/Информация : Advanced Video Codec
Профиль формата : High@L4.1
Параметр CABAC формата : Да
Параметр ReFrames формата : 5 кадров
Идентификатор кодека : V_MPEG4/ISO/AVC
Продолжительность : 43 м.
Битрейт : 5751 Кбит/сек
Ширина : 1280 пикселей
Высота : 720 пикселей
Соотношение сторон : 16:9
Режим частоты кадров : Постоянный
Частота кадров : 23,976 (24000/1001) кадра/сек
Цветовое пространство : YUV
Субдискретизация насыщенности : 4:2:0
Битовая глубина : 8 бит
Тип развёртки : Прогрессивная
Бит/(Пиксели*Кадры) : 0.260
Размер потока : 1,68 Гбайт (69%)
Библиотека кодирования : x264 core 157 r2932 303c484
Настройки программы : cabac=1 / ref=5 / deblock=1:-3:-3 / analyse=0x3:0x113 / me=umh / subme=8 / psy=1 / psy_rd=1.00:0.00 / mixed_ref=1 / me_range=24 / chroma_me=1 / trellis=2 / 8x8dct=1 / cqm=0 / deadzone=21,11 / fast_pskip=1 / chroma_qp_offset=-2 / threads=22 / lookahead_threads=3 / sliced_threads=0 / nr=0 / decimate=1 / interlaced=0 / bluray_compat=0 / constrained_intra=0 / bframes=3 / b_pyramid=2 / b_adapt=2 / b_bias=0 / direct=3 / weightb=1 / open_gop=0 / weightp=2 / keyint=240 / keyint_min=24 / scenecut=40 / intra_refresh=0 / rc_lookahead=50 / rc=2pass / mbtree=1 / bitrate=5751 / ratetol=1.0 / qcomp=0.60 / qpmin=0 / qpmax=69 / qpstep=4 / cplxblur=20.0 / qblur=0.5 / ip_ratio=1.40 / aq=3:0.80
Язык : English
Default : Нет
Forced : Нет
Аудио #1
Идентификатор : 2
Формат : AC-3
Формат/Информация : Audio Coding 3
Расширение режима : CM (complete main)
Параметр Endianness формата : Big
Идентификатор кодека : A_AC3
Продолжительность : 43 м.
Вид битрейта : Постоянный
Битрейт : 192 Кбит/сек
Каналы : 2 канала
Расположение каналов : Front: L R
Частота : 48,0 КГц
Частота кадров : 31,250 кадров/сек (1536 spf)
Метод сжатия : С потерями
Размер потока : 59,2 Мбайт (2%)
Заголовок : Невафильм
Язык : Russian
Default : Нет
Forced : Нет
Аудио #2
Идентификатор : 3
Формат : AC-3
Формат/Информация : Audio Coding 3
Расширение режима : CM (complete main)
Параметр Endianness формата : Big
Идентификатор кодека : A_AC3
Продолжительность : 43 м.
Вид битрейта : Постоянный
Битрейт : 640 Кбит/сек
Каналы : 6 каналов
Расположение каналов : Front: L C R, Side: L R, LFE
Частота : 48,0 КГц
Частота кадров : 31,250 кадров/сек (1536 spf)
Метод сжатия : С потерями
Размер потока : 197 Мбайт (8%)
Заголовок : LostFilm
Язык : Russian
Default : Нет
Forced : Нет
Аудио #3
Идентификатор : 4
Формат : DTS
Формат/Информация : Digital Theater Systems
Режим : 16
Параметр Endianness формата : Big
Идентификатор кодека : A_DTS
Продолжительность : 43 м.
Вид битрейта : Постоянный
Битрейт : 1509 Кбит/сек
Каналы : 6 каналов
Расположение каналов : Front: L C R, Side: L R, LFE
Частота : 48,0 КГц
Частота кадров : 93,750 кадра/сек (512 spf)
Битовая глубина : 24 бит
Метод сжатия : С потерями
Задержка видео : 11 мс.
Размер потока : 465 Мбайт (19%)
Язык : English
Default : Нет
Forced : Нет
Текст #1
Идентификатор : 5
Формат : UTF-8
Идентификатор кодека : S_TEXT/UTF8
Идентификатор кодека/Информация : UTF-8 Plain Text
Язык : English
Default : Нет
Forced : Нет
Текст #2
Идентификатор : 6
Формат : UTF-8
Идентификатор кодека : S_TEXT/UTF8
Идентификатор кодека/Информация : UTF-8 Plain Text
Заголовок : SDH
Язык : English
Default : Нет
Forced : Нет
Меню
00:00:00.000 : en:00:00:00.000
00:12:16.945 : en:00:12:16.945
00:19:43.015 : en:00:19:43.015
00:27:22.474 : en:00:27:22.474
00:36:10.668 : en:00:36:10.668
00:42:22.081 : en:00:42:22.081

Скриншоты

[thumb]https://b.Radikal больше не существует. Перезалейте изображение на другой хостинг!/b03/1910/9d/68adf2cc3927.png[/thumb][thumb]https://c.Radikal больше не существует. Перезалейте изображение на другой хостинг!/c02/1910/d8/b37093fa4a3d.png[/thumb][thumb]https://c.Radikal больше не существует. Перезалейте изображение на другой хостинг!/c04/1910/bb/9fabcb147202.png[/thumb][thumb]https://b.Radikal больше не существует. Перезалейте изображение на другой хостинг!/b20/1910/e7/6bb63a36f9b3.png[/thumb]
AdGuard VPN - бесплатный, надёжный и быстрый VPN
[korsars.pro].t24121.torrent 
Торрент: Зарегистрирован [ 2019-11-18 17:00 ] · 2D6A58309BC6B0C2D07B660E103FEA87F939211F

Скачать .torrent

Размер .torrent файла 271 KB

Статус: проверено
.torrent скачан: 5 раз
Размер: 53,52 GB
Правила

AdGuard VPN - бесплатный, надёжный и быстрый VPN
Похожие темы

Вы не зарегистрированы на нашем сайте. Вам доступна для скачивания только часть контента. Чтобы увидеть весь контент сайта, пожалуйста, зарегистрируйтесь.

Дешевый и быстрый Сидбокс
У Вас отключен VIP статус, поэтому Вам показывается реклама на сайте. Вы можете поддержать наш ресурс и приобрести VIP статус, тем самым отключив показ рекламы на сайте, а ещё VIP пользователи получают 15 инвайтов, которыми можно поделиться с друзьями или знакомыми.
Дешевый и быстрый Сидбокс
AdGuard - Интернет без рекламы и слежки в любом браузере
[Профиль] [ЛС]
Показать сообщения:    
Ответить на тему

Текущее время: 28-Май 05:14

Часовой пояс: UTC + 4



Вы не можете начинать темы
Вы не можете отвечать на сообщения
Вы не можете редактировать свои сообщения
Вы не можете удалять свои сообщения
Вы не можете голосовать в опросах
Вы не можете прикреплять файлы к сообщениям
Вы можете скачивать файлы
Анализ сайта korsars.pro Яндекс.Метрика

Материал для зрителей старше 18 летВсе материалы на сайте получены из свободных источников в сети Интернет и представлены исключительно для личного (некоммерческого) использования лицами старше 18 лет.