Любовь понарошку / Притворная Любовь / Nisekoi [S01-02] (2014-2015) BDRip | L2 | AniDub

Ответить на тему
Статистика раздачи [Обновить пиров]
Размер:  10,92 GB   |    Зарегистрирован:  1 год 11 месяцев   |    .torrent скачан:  11 раз
Раздают:  9  [  0 KB/s  ]   Качают:  2  [  0 KB/s  ]   Подробная статистика пиров
 
   
 
 
Автор Сообщение

4udaki ®

Оффлайн

Медали


Пол: Мужской

Стаж: 6 лет 11 месяцев

Наличие запрета:

Сообщений: 11592

Откуда: korsars.pro

Отдача: 2 Mb/s

Загрузка: 20 Mb/s

Нажми


Скачать Adguard бесплатно

Создавать темы 07-Ноя-2019 01:00

[Цитировать]

Притворная Любовь / Nisekoi (01-02 Сезон) (2014-2015)
Информация о фильме
Название: Притворная любовь
Оригинальное название: Nisekoi
Год выхода: 2015
Жанр: комедия, романтика, гарем
Режиссер: Симбо Акиюки, Миямото Юкихиро
Художник: Найто Кэн
В ролях: Утияма Коки, Тояма Нао, Ханадзава Кана, Комацу Микако, Асуми Кана, Утияма Юми, Сакура Аянэ
О фильме:
Ещё будучи маленьким мальчиком Раку Ичиджо, дал обещание своей избраннице, что они когда-нибудь снова встретятся и будут вместе. В качестве залога нерушимой клятвы, у каждого из них осталось по вещице, по которой они должны будут узнать друг друга в будущем, у Раку это замок, а у загадочной девочки ключик, отворяющий его. Не мало воды утекло с тех пор, Раку стал старшеклассником, но не смотря на это он хоть и забыл лицо той что хранит ключик от его замка, но всё равно свято чтит данное давно давно обещание. Так бы и скатилась вся эта история в банальную романтику с поисками суженной — ряженной, если бы не тот факт, что отец Раку является главой сильнейшей группировки якудза в городе, на чью территорию вторглась одна из сильнейших мафиозных семей. Так что теперь, героя вопреки всем своим мечтам и желаниям придётся всеми силами примирить два враждующих клана, а это значит, что придётся играть в любовь с наследницей мафиозной группировки Титогэ Кирисаки. Теперь обманывая фальшивыми поцелуйчиками и свиданочками этим двоим нужно обмануть свои семьи, защитить город и даже немного не мало раскрыть тайну ключика, из прошлого Раку. А вот сколько отыщется связанных с этим самым ключом персон нам героям только предстоит узнать...

Страна: Япония
Студия: SHAFT
Продолжительность: 32x ~00:24:00
Перевод: Любительский (двухголосый, закадровый) AniDub [JAM, Oriko]
Файл
Качество: BDRip [Исходник Nisekoi [S01-02] Blu-Ray Remux 1080p by antiBILLotic]
Формат: AVI
Кодек: XviD
Аудио кодек: AC3
Видео: XviD, 704x400 (16:9), 23.976 fps, 1621 Кбит/сек (0.240 bit/pixel)
Аудио RUS: 48.0 kHz, AC3, 2 ch, 192 kbps
Аудио JAP: 48.0 kHz, AC3, 2 ch, 192 kbps
Субтитры: русские (полный перевод, ASS)

Список серий

Сезон № 1
01. Обещание
02. Неожиданная встреча
03. Одного поля ягоды
04. В гостях
05. Плавание
06. Займы и одолжения
07. Соперник
08. Счастье
09. Горячие источники
10. Лотерея
11. Праздник
12. Подтверждение
13. После школы
14. Поле боя
15. Три штуки
16. Тайфун
17. День фестиваля
18. Пляж
19. Пьеса
20. Постановка
Сезон № 2
01. Отныне / Заметь меня
02. Судьба / Поединок
03. Нехватка
04. Мама
05. Научи / Мой дорогой Раку
06. Вкусно
07. Младшая сестра
08. Волшебный кондитер Косаки! / Работа
09. Уборка / Пришёл проведать
10. Поддержка
11. Хочу похудеть / Привет
12. На поиски / Просто проверка

MediaInfo

Общее
Полное имя : 01.Первый Сезон (2014)Притворная.Любовь.S01.AniDub.BDRip.Deadmauvlad.Ep.01.avi
Формат : AVI
Формат/Информация : Audio Video Interleave
Размер файла : 349 Мбайт
Продолжительность : 24 м. 11 с.
Общий поток : 2020 Кбит/сек
Название фильма : Притворная.Любовь.S01.AniDub.BDRip.Deadmauvlad.Ep.01
Режиссёр : Encoder by Deadmauvlad
Жанр : комедия, романтика
Программа кодирования : VirtualDubMod 1.5.10.3 | www.virtualdub-fr.org || (build 2550/release)
Формат оригинала/Имя : Anime
Авторское право : Encoder by Deadmauvlad
Примечание : Encoder by Deadmauvlad
Видео
Идентификатор : 0
Формат : MPEG-4 Visual
Профиль формата : Advanced Simple@L5
Настройки формата : BVOP1 / Custom Matrix
Параметр BVOP формата : 1
Параметр QPel формата : Нет
Параметр GMC формата : Без точки перехода
Параметр матрицы формата : Выборочная
Идентификатор кодека : XVID
Идентификатор кодека/Подсказка : XviD
Продолжительность : 24 м. 11 с.
Битрейт : 1621 Кбит/сек
Ширина : 704 пикселя
Высота : 400 пикселей
Соотношение сторон : 16:9
Частота кадров : 23,976 (24000/1001) кадра/сек
Цветовое пространство : YUV
Субдискретизация насыщенности : 4:2:0
Битовая глубина : 8 бит
Тип развёртки : Прогрессивная
Метод сжатия : С потерями
Бит/(Пиксели*Кадры) : 0.240
Размер потока : 280 Мбайт (80%)
Библиотека кодирования : XviD 73
Аудио #1
Идентификатор : 1
Формат : AC-3
Формат/Информация : Audio Coding 3
Коммерческое название : Dolby Digital
Идентификатор кодека : 2000
Продолжительность : 24 м. 11 с.
Вид битрейта : Постоянный
Битрейт : 192 Кбит/сек
Каналы : 2 канала
Channel layout : L R
Частота : 48,0 КГц
Частота кадров : 31,250 кадров/сек (1536 SPF)
Битовая глубина : 16 бит
Метод сжатия : С потерями
Размер потока : 33,2 Мбайт (10%)
Выравнивание : Разделение по промежуткам
Продолжительность промежутка : 42 мс. (1,00 видеокадр)
Время предзагрузки промежутка : 500 мс.
Аудио #2
Идентификатор : 2
Формат : AC-3
Формат/Информация : Audio Coding 3
Коммерческое название : Dolby Digital
Идентификатор кодека : 2000
Продолжительность : 24 м. 11 с.
Вид битрейта : Постоянный
Битрейт : 192 Кбит/сек
Каналы : 2 канала
Channel layout : L R
Частота : 48,0 КГц
Частота кадров : 31,250 кадров/сек (1536 SPF)
Битовая глубина : 16 бит
Метод сжатия : С потерями
Размер потока : 33,2 Мбайт (10%)
Выравнивание : Разделение по промежуткам
Продолжительность промежутка : 42 мс. (1,00 видеокадр)
Время предзагрузки промежутка : 500 мс.
-

Скриншоты

-

BDRip VS HDTV (WEBRip)


[korsars.pro].t23791.torrent 
Торрент: Зарегистрирован [ 2019-11-07 01:00 ] · E446A47D1B66528BE77F1801821651F42226E67B

Скачать .torrent

Размер .torrent файла 24 KB

Статус: проверено
.torrent скачан: 11 раз
Размер: 10,92 GB
Правила
Похожие темы

Вы не зарегистрированы на нашем сайте. Вам доступна для скачивания только часть контента. Чтобы увидеть весь контент сайта, пожалуйста, зарегистрироруйтесь.

Дешевый и быстрый Сидбокс

Ключи и пин-коды

Игры, Кредитные карты, IP-телефония, Интернет провайдеры, Мобильная связь, Спутниковое ТВ

Электронные книги

Бизнес и экономика, Дом, быт, семья, досуг, Санкт-Петербург, Компьютеры и интернет, Наука и образование, Техническая литература, Юридическая литература

Цифровые товары

iTunes & App Store, Базы данных, Дизайн, Доступ к ресурсам, Kарты продления, ключи, Фотографии, Шаблоны для сайтов

Программное обеспечение

Безопасность, Игры, PC, Интернет, Мобильная связь, Программирование, Продвижение сайтов (SEO), Утилиты
У Вас отключен VIP статус, поэтому Вам показывается реклама на сайте. Вы можете поддержать наш ресурс и приобрести VIP статус, тем самым отключив показ рекламы на сайте, а ещё VIP пользователи получают возможность

смотреть аниме онлайн в HD качестве

(не распространяется на раздел Flarrow Films), а так же получить 5 инвайтов, которыми можно поделиться с друзьями или знакомыми.
Дешевый и быстрый Сидбокс

Ключи и пин-коды

Игры, Кредитные карты, IP-телефония, Интернет провайдеры, Мобильная связь, Спутниковое ТВ

Электронные книги

Бизнес и экономика, Дом, быт, семья, досуг, Санкт-Петербург, Компьютеры и интернет, Наука и образование, Техническая литература, Юридическая литература

Цифровые товары

iTunes & App Store, Базы данных, Дизайн, Доступ к ресурсам, Kарты продления, ключи, Фотографии, Шаблоны для сайтов

Программное обеспечение

Безопасность, Игры, PC, Интернет, Мобильная связь, Программирование, Продвижение сайтов (SEO), Утилиты
[Профиль] [ЛС]
Показать сообщения:    
Ответить на тему

Текущее время: 28-Окт 01:47

Часовой пояс: UTC + 4



Вы не можете начинать темы
Вы не можете отвечать на сообщения
Вы не можете редактировать свои сообщения
Вы не можете удалять свои сообщения
Вы не можете голосовать в опросах
Вы не можете прикреплять файлы к сообщениям
Вы можете скачивать файлы
Анализ сайта korsars.pro Яндекс.Метрика