Госпожа Кагуя: в любви как на войне / Kaguya-sama wa Kokurasetai [S01] (2019) BDRip | D | Wakanim

Ответить на тему
Статистика раздачи [Обновить пиров]
Размер:  4,08 GB   |    Зарегистрирован:  1 год 11 месяцев   |    .torrent скачан:  10 раз
Раздают:  4  [  0 KB/s  ]   Качают:  6  [  0 KB/s  ]   Подробная статистика пиров
 
   
 
 
Автор Сообщение

4udaki ®

Онлайн

Медали


Пол: Мужской

Стаж: 6 лет 11 месяцев

Наличие запрета:

Сообщений: 11567

Откуда: korsars.pro

Отдача: 2 Mb/s

Загрузка: 20 Mb/s

Нажми


Скачать Adguard бесплатно

Создавать темы 30-Окт-2019 01:00

[Цитировать]

Информация о фильме
Название: Госпожа Кагуя: в любви как на войне
Оригинальное название: Kaguya-sama wa Kokurasetai: Tensai-tachi no Renai Zun
Год выхода: 2019
Жанр: комедия, романтика
Режиссер: Омата Синъити
О фильме:
Миюки Сироганэ — признанный молодой гений, имеющий высокие оценки по всем предметам и, помимо этого, возглавляющий студенческий совет одной из самых престижных школ страны. Парень работает вместе с Кагуей Синомией — вице-президентом и по совместительству первой красавицей школы. Хотя ребята не состоят в отношениях, но окружающие считают их отличной парой.
Проработав бок о бок длительное время, герои осознают появившиеся друг к другу чувства, однако никто из них не хочет признаваться, считая это слабостью. И теперь они готовы совершать любые, даже самые безумные поступки, чтобы получить признание.
-

Страна: Япония
Студия: A-1 Pictures Inc.
Продолжительность: 1 серия (00:26:00) + 11x ~00:24:00
Перевод: Профессиональный (дублированный) | StudioBand [Wakanim] [**]
Файл
Формат / Кодек: AVI / XviD
Качество: BDRip [Исходник: [Vol.01-06] /Kaguya-sama wa Kokurasetai: Tensai-tachi no Ren`ai Zunousen (U3-Project)]
Видео: 720x400 (16:9), 23.976 fps, 1621 kbps avg, 0.23 bit/pixel
Аудио №1: AC-3, 48,0 КГц, 2 ch, 192 Кбит/сек, CBR | | Wakanim
Аудио №2: AC-3, 48,0 КГц, 2 ch, 192 Кбит/сек, CBR | | Оригинал
Субтитры: русские (полный перевод, ASS) - SovetRomantica-

Список Серий

01. Я заставлю тебя пригласить меня в кино / Кагуя хочет, чтобы её остановили / Кагуя хочет этого
02. Кагуя хочет обменяться / Фудживара хочет куда-нибудь отправиться / Миюки хочет скрыть своё невежество
03. Широгане Миюки не делал этого / Кагуя хочет выяснить / Кагуя хочет прогуляться
04. Кагуя жаждет внимания / Школьный совет хочет это услышать / Кагуя хочет, чтобы он написал / Широгане Миюки хочет поговорить
05. Кагуя хочет преуспеть / Миюки Широгане хочет показать себя / Кагуя хочет укрыться
06. Ишигами Ю хочет выжить / Фудживара Чика хочет проверить / Кагуя хочет, чтобы её заметили
07. Широгане Миюки хочет поработать / Кагуя хочет, чтобы он присоединился / Кагуя хочет это контролировать
08. Кагуя хочет, чтобы она сказала / Широгане Миюки не может проиграть / Ишигами Ю закрывает глаза
09. Кагуя хочет сделать подарок / Фудживара Чика хочет зайти / О Шиномии Кагуе. Часть первая
10. Кагуя не простит / Кагуя хочет простить / Широгане Миюки хочет куда-нибудь сходить
11. Хаясака Ай хочет промокнуть / Фудживара Чика очень хочет это съесть / Широгане Миюки хочет тебя увидеть / Я не слышу фейерверки, часть первая
12. Я не слышу фейерверки, часть вторая / Кагуя не хочет его избегать
-

MediaInfo

1 серия
Общее
Полное имя : Kaguya-Sama.Wa.Kokurasetai.2019.S01.RUS.JAP.BDRip.Deadmauvlad.Ep.01.avi
Формат : AVI
Формат/Информация : Audio Video Interleave
Размер файла : 354 Мбайт
Продолжительность : 26 м. 31 с.
Общий поток : 1867 Кбит/сек
Название фильма : Kaguya-Sama.Wa.Kokurasetai.2019.S01.RUS.JAP.BDRip.Deadmauvlad.Ep.01
Режиссёр : Encoder by Deadmauvlad
Жанр : Комедия, романтика
Программа кодирования : VirtualDubMod 1.5.10.3 | www.virtualdub-fr.org || (build 2550/release)
Формат оригинала/Имя : Аниме
Авторское право : Encoder by Deadmauvlad
Примечание : Encoder by Deadmauvlad
Видео
Идентификатор : 0
Формат : MPEG-4 Visual
Профиль формата : Advanced Simple@L5
Настройки формата : BVOP1 / Custom Matrix
Параметр BVOP формата : 1
Параметр QPel формата : Нет
Параметр GMC формата : Без точки перехода
Параметр матрицы формата : Выборочная
Идентификатор кодека : XVID
Идентификатор кодека/Подсказка : XviD
Продолжительность : 26 м. 31 с.
Битрейт : 1469 Кбит/сек
Ширина : 720 пикселей
Высота : 400 пикселей
Соотношение сторон : 16:9
Частота кадров : 23,976 (24000/1001) кадра/сек
Цветовое пространство : YUV
Субдискретизация насыщенности : 4:2:0
Битовая глубина : 8 бит
Тип развёртки : Прогрессивная
Метод сжатия : С потерями
Бит/(Пиксели*Кадры) : 0.213
Размер потока : 279 Мбайт (79%)
Библиотека кодирования : XviD 73
Аудио #1
Идентификатор : 1
Формат : AC-3
Формат/Информация : Audio Coding 3
Коммерческое название : Dolby Digital
Идентификатор кодека : 2000
Продолжительность : 26 м. 31 с.
Вид битрейта : Постоянный
Битрейт : 192 Кбит/сек
Каналы : 2 канала
Channel layout : L R
Частота : 48,0 КГц
Частота кадров : 31,250 кадров/сек (1536 SPF)
Битовая глубина : 16 бит
Метод сжатия : С потерями
Размер потока : 36,4 Мбайт (10%)
Выравнивание : Разделение по промежуткам
Продолжительность промежутка : 42 мс. (1,00 видеокадр)
Время предзагрузки промежутка : 500 мс.
Аудио #2
Идентификатор : 2
Формат : AC-3
Формат/Информация : Audio Coding 3
Коммерческое название : Dolby Digital
Идентификатор кодека : 2000
Продолжительность : 26 м. 31 с.
Вид битрейта : Постоянный
Битрейт : 192 Кбит/сек
Каналы : 2 канала
Channel layout : L R
Частота : 48,0 КГц
Частота кадров : 31,250 кадров/сек (1536 SPF)
Битовая глубина : 16 бит
Метод сжатия : С потерями
Размер потока : 36,4 Мбайт (10%)
Выравнивание : Разделение по промежуткам
Продолжительность промежутка : 42 мс. (1,00 видеокадр)
Время предзагрузки промежутка : 500 мс.
2-12 серия
Общее
Полное имя : Kaguya-Sama.Wa.Kokurasetai.2019.S01.RUS.JAP.BDRip.Deadmauvlad.Ep.02.avi
Формат : AVI
Формат/Информация : Audio Video Interleave
Размер файла : 347 Мбайт
Продолжительность : 24 м. 1 с.
Общий поток : 2020 Кбит/сек
Название фильма : Kaguya-Sama.Wa.Kokurasetai.2019.S01.RUS.JAP.BDRip.Deadmauvlad.Ep.02
Режиссёр : Encoder by Deadmauvlad
Жанр : комедия, романтика
Программа кодирования : VirtualDubMod 1.5.10.3 | www.virtualdub-fr.org || (build 2550/release)
Формат оригинала/Имя : Аниме
Авторское право : Encoder by Deadmauvlad
Примечание : Encoder by Deadmauvlad
Видео
Идентификатор : 0
Формат : MPEG-4 Visual
Профиль формата : Advanced Simple@L5
Настройки формата : BVOP1 / Custom Matrix
Параметр BVOP формата : 1
Параметр QPel формата : Нет
Параметр GMC формата : Без точки перехода
Параметр матрицы формата : Выборочная
Идентификатор кодека : XVID
Идентификатор кодека/Подсказка : XviD
Продолжительность : 24 м. 1 с.
Битрейт : 1622 Кбит/сек
Ширина : 720 пикселей
Высота : 400 пикселей
Соотношение сторон : 16:9
Частота кадров : 23,976 (24000/1001) кадра/сек
Цветовое пространство : YUV
Субдискретизация насыщенности : 4:2:0
Битовая глубина : 8 бит
Тип развёртки : Прогрессивная
Метод сжатия : С потерями
Бит/(Пиксели*Кадры) : 0.235
Размер потока : 279 Мбайт (80%)
Библиотека кодирования : XviD 73
Аудио #1
Идентификатор : 1
Формат : AC-3
Формат/Информация : Audio Coding 3
Коммерческое название : Dolby Digital
Идентификатор кодека : 2000
Продолжительность : 24 м. 0 с.
Вид битрейта : Постоянный
Битрейт : 192 Кбит/сек
Каналы : 2 канала
Channel layout : L R
Частота : 48,0 КГц
Частота кадров : 31,250 кадров/сек (1536 SPF)
Битовая глубина : 16 бит
Метод сжатия : С потерями
Размер потока : 33,0 Мбайт (9%)
Выравнивание : Разделение по промежуткам
Продолжительность промежутка : 42 мс. (1,00 видеокадр)
Время предзагрузки промежутка : 500 мс.
Аудио #2
Идентификатор : 2
Формат : AC-3
Формат/Информация : Audio Coding 3
Коммерческое название : Dolby Digital
Идентификатор кодека : 2000
Продолжительность : 24 м. 0 с.
Вид битрейта : Постоянный
Битрейт : 192 Кбит/сек
Каналы : 2 канала
Channel layout : L R
Частота : 48,0 КГц
Частота кадров : 31,250 кадров/сек (1536 SPF)
Битовая глубина : 16 бит
Метод сжатия : С потерями
Размер потока : 33,0 Мбайт (10%)
Выравнивание : Разделение по промежуткам
Продолжительность промежутка : 42 мс. (1,00 видеокадр)
Время предзагрузки промежутка : 500 мс.
-

Скриншоты

**

Ретайминг: QYOUBI, NekoCoder
- -
[korsars.pro].t23523.torrent 
Торрент: Зарегистрирован [ 2019-10-30 01:00 ] · FE290567E7EADD278AFC906EBC00555829DB0A85

Скачать .torrent

Размер .torrent файла 8 KB

Статус: проверено
.torrent скачан: 10 раз
Размер: 4,08 GB
Правила
Похожие темы

Вы не зарегистрированы на нашем сайте. Вам доступна для скачивания только часть контента. Чтобы увидеть весь контент сайта, пожалуйста, зарегистрироруйтесь.

Дешевый и быстрый Сидбокс

Ключи и пин-коды

Игры, Кредитные карты, IP-телефония, Интернет провайдеры, Мобильная связь, Спутниковое ТВ

Электронные книги

Бизнес и экономика, Дом, быт, семья, досуг, Санкт-Петербург, Компьютеры и интернет, Наука и образование, Техническая литература, Юридическая литература

Цифровые товары

iTunes & App Store, Базы данных, Дизайн, Доступ к ресурсам, Kарты продления, ключи, Фотографии, Шаблоны для сайтов

Программное обеспечение

Безопасность, Игры, PC, Интернет, Мобильная связь, Программирование, Продвижение сайтов (SEO), Утилиты
У Вас отключен VIP статус, поэтому Вам показывается реклама на сайте. Вы можете поддержать наш ресурс и приобрести VIP статус, тем самым отключив показ рекламы на сайте, а ещё VIP пользователи получают возможность

смотреть аниме онлайн в HD качестве

(не распространяется на раздел Flarrow Films), а так же получить 5 инвайтов, которыми можно поделиться с друзьями или знакомыми.
Дешевый и быстрый Сидбокс

Ключи и пин-коды

Игры, Кредитные карты, IP-телефония, Интернет провайдеры, Мобильная связь, Спутниковое ТВ

Электронные книги

Бизнес и экономика, Дом, быт, семья, досуг, Санкт-Петербург, Компьютеры и интернет, Наука и образование, Техническая литература, Юридическая литература

Цифровые товары

iTunes & App Store, Базы данных, Дизайн, Доступ к ресурсам, Kарты продления, ключи, Фотографии, Шаблоны для сайтов

Программное обеспечение

Безопасность, Игры, PC, Интернет, Мобильная связь, Программирование, Продвижение сайтов (SEO), Утилиты
[Профиль] [ЛС]
Показать сообщения:    
Ответить на тему

Текущее время: 24-Окт 19:49

Часовой пояс: UTC + 4



Вы не можете начинать темы
Вы не можете отвечать на сообщения
Вы не можете редактировать свои сообщения
Вы не можете удалять свои сообщения
Вы не можете голосовать в опросах
Вы не можете прикреплять файлы к сообщениям
Вы можете скачивать файлы
Анализ сайта korsars.pro Яндекс.Метрика