Ковбой Бибоп / Cowboy Bebop [S01] (1998) BDRip от Deadmauvlad | P | Kansai Studio

Ответить на тему
Статистика раздачи [Обновить пиров]
Размер:  8,9 GB   |    Зарегистрирован:  1 год 11 месяцев   |    .torrent скачан:  4 раза
Раздают:  31  [  0 KB/s  ]   Качают:  12  [  0 KB/s  ]   Подробная статистика пиров
 
   
 
 
Автор Сообщение

4udaki ®

Онлайн

Медали


Пол: Мужской

Стаж: 6 лет 11 месяцев

Наличие запрета:

Сообщений: 11542

Откуда: korsars.pro

Отдача: 2 Mb/s

Загрузка: 20 Mb/s

Нажми


Скачать Adguard бесплатно

Создавать темы 26-Окт-2019 21:00

[Цитировать]


Информация о фильме
Название: Ковбой Бибоп
Оригинальное название: Cowboy Bebop
Год выхода: 1998
Жанр: приключения, комедия, драма, фантастика
Режиссер: Ватанабэ Синъитиро
В ролях: Коити Ямадэра, Унсё Исидзука, Мэгуми Хаясибара, Иссин Тиба, Аой Тада, Хироси Нака, Цутому Тарэки, Мики Нагасава, Тосихико Накадзима, Джин Хирао
О фильме:
Культовый сериал о приключениях двух охотников за головами - Спайке и Джете, бороздящими просторы Солнечной Системы на корабле "Бибоп" и промышляющими охотой на преступников за награду.

Страна: Япония
Студия: Sunrise
Продолжительность: 26x ~00:25:00
Перевод: Профессиональный многоголосый закадровый Студия Кансай (2019 год.)
Файл
Кодек: XviD
Качество: BDRip [Исходник BDRemux 1080i]
Видео: XviD, 720x528 (4:3), 23.976 fps, 1587 Кбит/сек (0.174 bit/pixel)
Звук:
Звук (Rus(int)): AC-3, 192 kbps, 48,0 KHz, 2 ch | [Kansai]
Звук (JAP): AC-3, 192 kbps, 48,0 KHz, 2 ch | [Оригинал]
Субтитры: русские (переводчик Sergei Svetlichnyi полный перевод, *ASS)

mediaInfo

Общее
Полное имя : АнимеCowboy.Bebop.1998.S01.P.KanSaI.Studio.BDRip.DeadmauvladКовбой.Бибоп.1998.S01.P.KanSaI.Studio.BDRip.Deadmauvlad.Ep.01.avi
Формат : AVI
Формат/Информация : Audio Video Interleave
Размер файла : 351 Мбайт
Продолжительность : 24 м. 43 с.
Общий поток : 1985 Кбит/сек
Название фильма : Ковбой.Бибоп 1998.S01.L.KanSaI.Studio.BDRip.Deadmauvlad.Ep.01
Режиссёр : Автор рипа: Deadmauvlad
Жанр : драма, фантастика
Программа кодирования : VirtualDubMod 1.5.10.3 | www.virtualdub-fr.org || (build 2550/release)
Формат оригинала/Имя : Anime
Авторское право : Encoder by Deadmauvlad
Примечание : Encoder by Deadmauvlad
Видео
Идентификатор : 0
Формат : MPEG-4 Visual
Профиль формата : Advanced Simple@L5
Настройки формата : BVOP1 / Custom Matrix
Параметр BVOP формата : 1
Параметр QPel формата : Нет
Параметр GMC формата : Без точки перехода
Параметр матрицы формата : Выборочная
Идентификатор кодека : XVID
Идентификатор кодека/Подсказка : XviD
Продолжительность : 24 м. 43 с.
Битрейт : 1587 Кбит/сек
Ширина : 720 пикселей
Высота : 528 пикселей
Соотношение сторон : 4:3
Частота кадров : 23,976 (24000/1001) кадра/сек
Цветовое пространство : YUV
Субдискретизация насыщенности : 4:2:0
Битовая глубина : 8 бит
Тип развёртки : Прогрессивная
Метод сжатия : С потерями
Бит/(Пиксели*Кадры) : 0.174
Размер потока : 280 Мбайт (80%)
Библиотека кодирования : XviD 73
Аудио #1
Идентификатор : 1
Формат : AC-3
Формат/Информация : Audio Coding 3
Коммерческое название : Dolby Digital
Идентификатор кодека : 2000
Продолжительность : 24 м. 43 с.
Вид битрейта : Постоянный
Битрейт : 192 Кбит/сек
Каналы : 2 канала
Channel layout : L R
Частота : 48,0 КГц
Частота кадров : 31,250 кадров/сек (1536 SPF)
Битовая глубина : 16 бит
Метод сжатия : С потерями
Размер потока : 33,9 Мбайт (10%)
Выравнивание : Разделение по промежуткам
Продолжительность промежутка : 42 мс. (1,00 видеокадр)
Время предзагрузки промежутка : 500 мс.
Аудио #2
Идентификатор : 2
Формат : AC-3
Формат/Информация : Audio Coding 3
Коммерческое название : Dolby Digital
Идентификатор кодека : 2000
Продолжительность : 24 м. 43 с.
Вид битрейта : Постоянный
Битрейт : 192 Кбит/сек
Каналы : 2 канала
Channel layout : L R
Частота : 48,0 КГц
Частота кадров : 31,250 кадров/сек (1536 SPF)
Битовая глубина : 16 бит
Метод сжатия : С потерями
Размер потока : 33,9 Мбайт (10%)
Выравнивание : Разделение по промежуткам
Продолжительность промежутка : 42 мс. (1,00 видеокадр)
Время предзагрузки промежутка : 500 мс.

Список Эпизодов

01. Asteroid Blues
02. Stray Dog Strut
03. Honky Tonk Women
04. Gateway Shuffle
05. Ballad of Fallen Angels
06. Sympathy for the Devil
07. Heavy Metal Queen
08. Waltz for Venus
09. Jamming With Edward
10. Ganymede Elegy
11. Toys in the Attic
12. Jupiter Jazz Part I
13. Jupiter Jazz Part II
14. Bohemian Rhapsody
15. My Funny Valentine
16. Black Dog Serenade
17. Mushroom Samba
18. Speak Like A Child
19. Wild Horses
20. Pierrot Le Fou
21. Boogie Woogie Feng Shui
22. Cowboy Funk
23. Brain Scratch
24. Hard Luck Woman
25. The Real Folk Blues Part I
26. The Real Folk Blues Part II

Скриншоты

Над Релизом работали

ЦитатаDeadmauvlad писал:
1. За исходник спасибо AceFlame
2. Тайминг и удаление аудиорекламы Deadmauvlad (Также спасибо большое за помощь Den4ik, Neko_FeliXXX)
Релиз/автор рипов by Deadmauvlad
Без рекламы
[korsars.pro].t23428.torrent 
Торрент: Зарегистрирован [ 2019-10-26 21:00 ] · EE11B16762002622F2EEEB5469B99117393799C9

Скачать .torrent

Размер .torrent файла 18 KB

Статус: проверено
.torrent скачан: 4 раз
Размер: 8,9 GB
Правила
Похожие темы

Вы не зарегистрированы на нашем сайте. Вам доступна для скачивания только часть контента. Чтобы увидеть весь контент сайта, пожалуйста, зарегистрироруйтесь.

Дешевый и быстрый Сидбокс

Ключи и пин-коды

Игры, Кредитные карты, IP-телефония, Интернет провайдеры, Мобильная связь, Спутниковое ТВ

Электронные книги

Бизнес и экономика, Дом, быт, семья, досуг, Санкт-Петербург, Компьютеры и интернет, Наука и образование, Техническая литература, Юридическая литература

Цифровые товары

iTunes & App Store, Базы данных, Дизайн, Доступ к ресурсам, Kарты продления, ключи, Фотографии, Шаблоны для сайтов

Программное обеспечение

Безопасность, Игры, PC, Интернет, Мобильная связь, Программирование, Продвижение сайтов (SEO), Утилиты
У Вас отключен VIP статус, поэтому Вам показывается реклама на сайте. Вы можете поддержать наш ресурс и приобрести VIP статус, тем самым отключив показ рекламы на сайте, а ещё VIP пользователи получают возможность

смотреть аниме онлайн в HD качестве

(не распространяется на раздел Flarrow Films), а так же получить 5 инвайтов, которыми можно поделиться с друзьями или знакомыми.
Дешевый и быстрый Сидбокс

Ключи и пин-коды

Игры, Кредитные карты, IP-телефония, Интернет провайдеры, Мобильная связь, Спутниковое ТВ

Электронные книги

Бизнес и экономика, Дом, быт, семья, досуг, Санкт-Петербург, Компьютеры и интернет, Наука и образование, Техническая литература, Юридическая литература

Цифровые товары

iTunes & App Store, Базы данных, Дизайн, Доступ к ресурсам, Kарты продления, ключи, Фотографии, Шаблоны для сайтов

Программное обеспечение

Безопасность, Игры, PC, Интернет, Мобильная связь, Программирование, Продвижение сайтов (SEO), Утилиты
[Профиль] [ЛС]
Показать сообщения:    
Ответить на тему

Текущее время: 20-Окт 11:58

Часовой пояс: UTC + 4



Вы не можете начинать темы
Вы не можете отвечать на сообщения
Вы не можете редактировать свои сообщения
Вы не можете удалять свои сообщения
Вы не можете голосовать в опросах
Вы не можете прикреплять файлы к сообщениям
Вы можете скачивать файлы
Анализ сайта korsars.pro Яндекс.Метрика