Магазин единорогов / Unicorn Store (Бри Ларсон) [2017, комедия, WEB-DLRip 1080p | Flarrow Films | БЕЗ РЕКЛАМЫ]

Ответить на тему
Статистика раздачи [Обновить пиров]
Размер:  2,33 GB   |    Зарегистрирован:  2 года 5 месяцев   |    .torrent скачан:  35 раз
Раздают:  55  [  0 KB/s  ]   Качают:  5  [  0 KB/s  ]   Подробная статистика пиров
 
   
 
 
Автор Сообщение

4udaki ®

Оффлайн

Медали


Пол: Мужской

Стаж: 6 лет 11 месяцев

Наличие запрета:

Сообщений: 11554

Откуда: korsars.pro

Отдача: 2 Mb/s

Загрузка: 20 Mb/s

Нажми


Скачать Adguard бесплатно

Создавать темы 24-Апр-2019 22:21

[Цитировать]

-Магазин единорогов / Unicorn Store-Год выпуска: 2017
Страна:
США
Жанр: комедия
Продолжительность: 01:33:52
Перевод: Любительский (многоголосый, закадровый) | Flarrow Films
Субтитры: отсутствуют-В ролях: Бри Ларсон, Сэмюэл Л. Джексон, Джоан Кьюсак, Брэдли Уитфорд, Каран Сони, Марта МакАйзек, Райан Хансен, Хамиш Линклэйтер, Эмили Робинсон, Сьюзэн Парк
Режиссёр: Бри Ларсон-Рейтинг:
-Описание: Женщина по имени Кит никогда не думала, что ее детские мечты, которые были нереальными, когда-нибудь могут исполниться, но в один прекрасный момент она получила загадочное приглашение. В нем было указано, куда Кит идти, а также то, что она увидит в этом месте. Кит с удовольствием пойдет по указанному адресу, правда, не рассчитывая ни на что, однако в необыкновенном магазине ее ждал волшебный сюрприз. Поначалу Кит попросту опешила, потому что она не могла поверить в происходящее, однако быстро собрала себя в руки. Теперь Кит предстоит поверить в волшебство, потому что ее детские мечты сегодня точно сбудутся.-Качество: WEB-DLRip 1080p
Формат: MKV (MPEG-4 AVC)
Видео: 1920x1080, ~3 621 kb/s, 23.976 FPS
Аудио RUS / ENG: AAC LC (Advanced Audio Codec Low Complexity), 296 kb/s, 2 channels, 48.0 kHz-

Скриншоты

-

MediaInfo

General
Complete name : D:\Downloads\Movies\Unicorn.Store.WEB-DLRip.1O8Op.Flarrow.Films.[free-tor].mkv
Format : MPEG-4
Format profile : Base Media
Codec ID : isom (isom/mp42)
File size : 2.33 GiB
Duration : 1 h 32 min
Overall bit rate mode : Variable
Overall bit rate : 3 621 kb/s
FileExtension_Invalid : mov mp4 m4v m4a m4b m4p m4r 3ga 3gpa 3gpp 3gp 3gpp2 3g2 k3g jpm jpx mqv ismv isma ismt f4a f4b f4v
Video
ID : 2
Format : AVC
Format/Info : Advanced Video Codec
Format profile : Baseline@L4
Format settings : 3 Ref Frames
Format settings, CABAC : No
Format settings, ReFrames : 3 frames
Format settings, GOP : M=1, N=15
Codec ID : avc1
Codec ID/Info : Advanced Video Coding
Duration : 1 h 32 min
Source duration : 1 h 32 min
Bit rate mode : Variable
Bit rate : 3 316 kb/s
Maximum bit rate : 18.0 Mb/s
Width : 1 920 pixels
Height : 1 080 pixels
Display aspect ratio : 16:9
Frame rate mode : Variable
Frame rate : 23.976 (23976/1000) FPS
Minimum frame rate : 23.810 FPS
Maximum frame rate : 24.390 FPS
Original frame rate : 23.976 (24000/1001) FPS
Standard : NTSC
Color space : YUV
Chroma subsampling : 4:2:0
Bit depth : 8 bits
Scan type : Progressive
Bits/(Pixel*Frame) : 0.067
Stream size : 2.13 GiB (92%)
Source stream size : 2.13 GiB (92%)
Language : English
Color range : Limited
mdhd_Duration : 5523310
Codec configuration box : avcC
Audio
ID : 1
Format : AAC LC
Format/Info : Advanced Audio Codec Low Complexity
Codec ID : mp4a-40-2
Duration : 1 h 32 min
Source duration : 1 h 32 min
Bit rate mode : Variable
Bit rate : 296 kb/s
Channel(s) : 2 channels
Channel layout : L R
Sampling rate : 48.0 kHz
Frame rate : 46.875 FPS (1024 SPF)
Compression mode : Lossy
Stream size : 195 MiB (8%)
Source stream size : 195 MiB (8%)
Language : English
mdhd_Duration : 5523819
-
[korsars.pro].t20834.torrent 
Торрент: Зарегистрирован [ 2019-04-24 22:21 ] · C2F35B22205A924F490A1A31952A2F2D454FC2EA

Скачать .torrent

Размер .torrent файла 13 KB

Статус: проверено
.torrent скачан: 35 раз
Размер: 2,33 GB
Правила
Skorp10n(24-Апр-19)
Похожие темы

Вы не зарегистрированы на нашем сайте. Вам доступна для скачивания только часть контента. Чтобы увидеть весь контент сайта, пожалуйста, зарегистрироруйтесь.

Дешевый и быстрый Сидбокс

Ключи и пин-коды

Игры, Кредитные карты, IP-телефония, Интернет провайдеры, Мобильная связь, Спутниковое ТВ

Электронные книги

Бизнес и экономика, Дом, быт, семья, досуг, Санкт-Петербург, Компьютеры и интернет, Наука и образование, Техническая литература, Юридическая литература

Цифровые товары

iTunes & App Store, Базы данных, Дизайн, Доступ к ресурсам, Kарты продления, ключи, Фотографии, Шаблоны для сайтов

Программное обеспечение

Безопасность, Игры, PC, Интернет, Мобильная связь, Программирование, Продвижение сайтов (SEO), Утилиты
У Вас отключен VIP статус, поэтому Вам показывается реклама на сайте. Вы можете поддержать наш ресурс и приобрести VIP статус, тем самым отключив показ рекламы на сайте, а ещё VIP пользователи получают возможность

смотреть аниме онлайн в HD качестве

(не распространяется на раздел Flarrow Films), а так же получить 5 инвайтов, которыми можно поделиться с друзьями или знакомыми.
Дешевый и быстрый Сидбокс

Ключи и пин-коды

Игры, Кредитные карты, IP-телефония, Интернет провайдеры, Мобильная связь, Спутниковое ТВ

Электронные книги

Бизнес и экономика, Дом, быт, семья, досуг, Санкт-Петербург, Компьютеры и интернет, Наука и образование, Техническая литература, Юридическая литература

Цифровые товары

iTunes & App Store, Базы данных, Дизайн, Доступ к ресурсам, Kарты продления, ключи, Фотографии, Шаблоны для сайтов

Программное обеспечение

Безопасность, Игры, PC, Интернет, Мобильная связь, Программирование, Продвижение сайтов (SEO), Утилиты
[Профиль] [ЛС]

EStolniy23

Оффлайн

Медали
VIPАктивный раздающий 1Активный раздающий 2Активный релизер 1000
Активный релизер 1500Активный релизер 2000Активный релизер 250Активный релизер 3000Активный релизер 500Активный релизер 5000Активный релизер Фильмов (1000)Активный релизер Фильмов (300)Активный релизер Фильмов (600)Активный Форумчанин 1Активный Форумчанин 2Активный Форумчанин 3Активный Форумчанин 4Друг трекераКарма 1000Карма 1500Карма 3000Карма 500МеценатНи дня без новостейОрденосец 1 степениОрденосец 2 степениОрденосец 3 степениПочетный орденосецПочетный репортерС Новым 2016 Годом!С Новым 2017 Годом!С Новым 2018 Годом!С Новым 2019 Годом!Супер Мега Контер КвейкТОП-10


Пол: Мужской

Стаж: 6 лет 2 месяца

Наличие запрета:

Сообщений: 11446

Откуда: KORSARS

Отдача: 2 Mb/s

Загрузка: 20 Mb/s

Нажми


Скачать Adguard бесплатно

Создавать темы 24-Апр-2019 22:41 (спустя 19 минут)

[Цитировать]

У нас же появился специальный раздел для фильмов от Netflix?
[Профиль] [ЛС]

4udaki ®

Оффлайн

Медали


Пол: Мужской

Стаж: 6 лет 11 месяцев

Наличие запрета:

Сообщений: 11554

Откуда: korsars.pro

Отдача: 2 Mb/s

Загрузка: 20 Mb/s

Нажми


Скачать Adguard бесплатно

Создавать темы 24-Апр-2019 23:04 (спустя 23 минуты)

[Цитировать]

Skorp10n, сорян, не заметил, что это Netflix ag
[Профиль] [ЛС]

Создавать темы 24-Апр-2019 23:04 (спустя 16 секунд)

Топик был перенесен из форума Зарубежные фильмы в высоком качестве в форум Netflix
Причина переноса: Правильный форум
4udaki
 
Показать сообщения:    
Ответить на тему

Текущее время: 23-Окт 18:51

Часовой пояс: UTC + 4



Вы не можете начинать темы
Вы не можете отвечать на сообщения
Вы не можете редактировать свои сообщения
Вы не можете удалять свои сообщения
Вы не можете голосовать в опросах
Вы не можете прикреплять файлы к сообщениям
Вы можете скачивать файлы
Анализ сайта korsars.pro Яндекс.Метрика