Агенты «Щ.И.Т.» / Agents of S.H.I.E.L.D. (Кевин Танчароэн, Билл Джирхарт, Винс Мисиано) [S01-05] [2013-2018, фантастика, боевик, триллер, драма, приключения, WEB-DLRip | Невафильм]

Ответить на тему
Статистика раздачи [Обновить пиров]
Размер:  73,67 GB   |    Зарегистрирован:  5 лет 1 месяц   |    .torrent скачан:  35 раз
Раздают:  8  [  0 KB/s  ]   Качают:  13  [  0 KB/s  ]   Подробная статистика пиров
   
 
Автор Сообщение

EStolniy23 ®

Оффлайн

Медали
VIPАктивный раздающий 1Активный раздающий 2Активный релизер 1000
Активный релизер 1500Активный релизер 2000Активный релизер 250Активный релизер 3000Активный релизер 500Активный релизер 5000Активный релизер Фильмов (1000)Активный релизер Фильмов (300)Активный релизер Фильмов (600)Активный Форумчанин 1Активный Форумчанин 2Активный Форумчанин 3Активный Форумчанин 4Друг трекераКарма 1000Карма 1500Карма 3000Карма 500МеценатНи дня без новостейОрденосец 1 степениОрденосец 2 степениОрденосец 3 степениПочетный орденосецПочетный репортерС Новым 2016 Годом!С Новым 2017 Годом!С Новым 2018 Годом!С Новым 2019 Годом!Супер Мега Контер КвейкТОП-10


Пол: Мужской

Стаж: 8 лет 9 месяцев

Наличие запрета:

Сообщений: 11466

Отдача: не определено

Загрузка: не определено



AdGuard VPN - бесплатный, надёжный и быстрый VPN

Создавать темы 22-Апр-2019 17:21

[Цитировать]

[img]http://c.Radikal больше не существует. Перезалейте изображение на другой хостинг!/c33/1904/2e/9b9850e8918a.png[/img]-Агенты «Щ.И.Т.» / Agents of S.H.I.E.L.D.-[img=right]http://b.Radikal больше не существует. Перезалейте изображение на другой хостинг!/b11/1904/9a/e1a3fc96fa79.jpg[/img]
Страна: США
Производство: Marvel Television
Год выпуска: 2013-2018
Жанр: фантастика, боевик, триллер, драма, приключения
Продолжительность: 110х ~00:45:00-Режиссеры: Кевин Танчароэн, Билл Джирхарт, Винс Мисиано
Авторы сценария: Морисса Танчароэн, Джед Уидон, Джосс Уидон
В ролях: Кларк Грегг, Минг-На, Бретт Далтон, Хлоя Беннет, Йен де Кестекер, Элизабет Хенстридж, Ник Блад, Эдрианн Палики, Генри Симмонс-Описание: Действия сериала разворачиваются после событий фильма «Мстители». Агент Фил Колсон возвращается в правоохранительную организацию под названием Щ. И. Т., собрав небольшую команду профессионалов, он начинает работу над новыми делами, которые порой бывают очень странными...- -Перевод: Профессиональный (полное дублирование) | Невафильм
Субтитры: нет-Качество: WEB-DLRip
Формат: AVI
Видео кодек: XviD
Аудио кодек: АС3
Видео: 704x400 (16:9), 23.976 fps, XviD build 73 ~2 000 kbps avg
Аудио: 48.0 kHz, AC3 Dolby Digital, 2/0 (L,R) ch, ~192 kbps-Дата премьеры (мир): 19 июля 2013
Дата премьеры (РФ): 15 марта 2014-[img]http://c.Radikal больше не существует. Перезалейте изображение на другой хостинг!/c21/1812/86/e0a24dbd8466.gif[/img] [img]http://a.Radikal больше не существует. Перезалейте изображение на другой хостинг!/a34/1812/16/ce23a5db49e7.gif[/img]-Релиз от: tеko-

Media Info

-General
Complete name : Season_01s01e01_Pilot.avi
Format : AVI
Format/Info : Audio Video Interleave
File size : 694 MiB
Duration : 44mn 5s
Overall bit rate : 2 201 Kbps
Writing application : VirtualDubMod 1.5.10.3 | (build 2550/release)
Writing library : VirtualDubMod build 2550/release
Video
ID : 0
Format : MPEG-4 Visual
Format profile : Advanced Simple@L5
Format settings, BVOP : 2
Format settings, QPel : No
Format settings, GMC : No warppoints
Format settings, Matrix : Custom
Codec ID : XVID
Codec ID/Hint : XviD
Duration : 44mn 5s
Bit rate : 2 000 Kbps
Width : 704 pixels
Height : 400 pixels
Display aspect ratio : 16:9
Frame rate : 23.976 (23976/1000) fps
Color space : YUV
Chroma subsampling : 4:2:0
Bit depth : 8 bits
Scan type : Progressive
Compression mode : Lossy
Bits/(Pixel*Frame) : 0.296
Stream size : 631 MiB (91%)
Writing library : XviD 73
Audio
ID : 1
Format : AC-3
Format/Info : Audio Coding 3
Mode extension : CM (complete main)
Format settings, Endianness : Big
Codec ID : 2000
Duration : 44mn 5s
Bit rate mode : Constant
Bit rate : 192 Kbps
Channel(s) : 2 channels
Channel positions : Front: L R
Sampling rate : 48.0 KHz
Frame rate : 31.250 fps (1536 spf)
Compression mode : Lossy
Stream size : 60.6 MiB (9%)
Alignment : Split accross interleaves
Interleave, duration : 42 ms (1.00 video frame)
Interleave, preload duratio : 500 ms-
-

Скриншоты

--
-
AdGuard VPN - бесплатный, надёжный и быстрый VPN
[korsars.pro].t20761.torrent 
Торрент: Зарегистрирован [ 2019-04-22 17:21 ] · 1925ECD4D32107F274D5B72F26E1B57BF71F99A4

Скачать .torrent

Размер .torrent файла 377 KB

Статус: проверено
.torrent скачан: 35 раз
Размер: 73,67 GB
Правила

AdGuard VPN - бесплатный, надёжный и быстрый VPN
Похожие темы

Вы не зарегистрированы на нашем сайте. Вам доступна для скачивания только часть контента. Чтобы увидеть весь контент сайта, пожалуйста, зарегистрируйтесь.

Дешевый и быстрый Сидбокс
У Вас отключен VIP статус, поэтому Вам показывается реклама на сайте. Вы можете поддержать наш ресурс и приобрести VIP статус, тем самым отключив показ рекламы на сайте, а ещё VIP пользователи получают 15 инвайтов, которыми можно поделиться с друзьями или знакомыми.
Дешевый и быстрый Сидбокс
AdGuard - Интернет без рекламы и слежки в любом браузере
[Профиль] [ЛС]
Показать сообщения:    
Ответить на тему

Текущее время: 28-Май 05:28

Часовой пояс: UTC + 4



Вы не можете начинать темы
Вы не можете отвечать на сообщения
Вы не можете редактировать свои сообщения
Вы не можете удалять свои сообщения
Вы не можете голосовать в опросах
Вы не можете прикреплять файлы к сообщениям
Вы можете скачивать файлы
Анализ сайта korsars.pro Яндекс.Метрика

Материал для зрителей старше 18 летВсе материалы на сайте получены из свободных источников в сети Интернет и представлены исключительно для личного (некоммерческого) использования лицами старше 18 лет.