Укрась прощальное утро цветами обещания / Sayonara no asa ni yakusoku no hana o kazaro (Мари Окада) [2018, аниме, мультфильм, драма, мелодрама, приключения, фэнтези, BDRip | iTunes]

Ответить на тему
Статистика раздачи [Обновить пиров]
Размер:  1,46 GB   |    Зарегистрирован:  3 года   |    .torrent скачан:  16 раз
Раздают:  548  [  0 KB/s  ]   Качают:  30  [  0 KB/s  ]   Подробная статистика пиров
 
   
 
 
Автор Сообщение

EStolniy23 ®

Оффлайн

Медали
VIPАктивный раздающий 1Активный раздающий 2Активный релизер 1000
Активный релизер 1500Активный релизер 2000Активный релизер 250Активный релизер 3000Активный релизер 500Активный релизер 5000Активный релизер Фильмов (1000)Активный релизер Фильмов (300)Активный релизер Фильмов (600)Активный Форумчанин 1Активный Форумчанин 2Активный Форумчанин 3Активный Форумчанин 4Друг трекераКарма 1000Карма 1500Карма 3000Карма 500МеценатНи дня без новостейОрденосец 1 степениОрденосец 2 степениОрденосец 3 степениПочетный орденосецПочетный репортерС Новым 2016 Годом!С Новым 2017 Годом!С Новым 2018 Годом!С Новым 2019 Годом!Супер Мега Контер КвейкТОП-10


Пол: Мужской

Стаж: 6 лет 4 месяца

Наличие запрета:

Сообщений: 11494

Откуда: KORSARS

Отдача: 2 Mb/s

Загрузка: 20 Mb/s

Нажми


Скачать Adguard бесплатно

Создавать темы 18-Ноя-2018 22:48

[Цитировать]

Информация о фильме- Название: Укрась прощальное утро цветами обещания
Оригинальное название: Sayonara no asa ni yakusoku no hana o kazaro / Maquia: When the Promised Flower Blooms
Год выхода: 2018
Жанр: Аниме, мультфильм, драма, мелодрама, приключения, фэнтези
Страна: Япония
Перевод: Дублированный | iTunes + субтитры на ~ 2мин
Продолжительность: 01:54:48
Режиссер: Мари Окада
В ролях: Манака Ивами, Ирино Мию, Ёко Хикаса, Хирата Хироаки, Ёсимаса Хосоя, Юки Кадзи, Аи Каяно, Мисаки Куно, Рина Сато, Миюки Савасиро и др.
Роли дублировали: Елена Симанович, Анна Гребенщикова, Василий Марков, Михаил Каданин, Мария Бондаренко.-О фильме: Красавица Макия — из рода бессмертных. На протяжении веков многие армии пытались захватить её народ, чтобы завладеть секретом вечной жизни. И вот теперь, когда город разрушен, девушка прячется в лесу. Здесь она встречает потерявшего родителей маленького мальчика Эриала и начинает о нём заботиться. Проходят годы, мальчик превращается в прекрасного юношу, и у беглецов возникают чувства друг к другу. Но Макия понимает, что Эриал — простой человек, а значит, он смертен.- -Файл-Формат: AVI
Качество: BDRip | BDRemux 1080p
Видео: Xvid 73, 704x400, ~1425 kbps, 23,976 fps
Звук: русский, AC3, 5.1 ch, 48 kHz, 384 kbps | iTunes
Субтитры: русские (вшитые) на ~ 2 мин-

MI

-General
Полное имя : F:TorrentSayonaranoasaniyakusokunohanaokazaroBDRip.avi
Формат : AVI
Формат/Информация : Audio Video Interleave
Профиль формата : OpenDML
Размер файла : 1.46 GiB
Продолжительность : 1 h 54 min
Общий поток : 1 820 kb/s
Программа кодирования : XviD4PSP 6.0 / 54.27.101
Video
Идентификатор : 0
Формат : MPEG-4 Visual
Профиль формата : Advanced Simple@L5
Настройки формата : BVOP2 / Custom Matrix
Параметр BVOP формата : 2
Параметр QPel формата : No
Параметр GMC формата : No warppoints
Параметр матрицы формата : Custom
Идентификатор кодека : XVID
Идентификатор кодека/Подсказка : XviD
Продолжительность : 1 h 54 min
Битрейт : 1 425 kb/s
Ширина : 704 pixels
Высота : 400 pixels
Соотношение сторон : 16:9
Частота кадров : 23.976 (23976/1000) FPS
Цветовое пространство : YUV
Субдискретизация насыщенности : 4:2:0
Битовая глубина : 8 bits
Тип развёртки : Progressive
Метод сжатия : Lossy
Бит/(Пиксели*Кадры) : 0.211
Размер потока : 1.14 GiB (78%)
Библиотека кодирования : XviD 73
Audio
Идентификатор : 1
Формат : AC-3
Формат/Информация : Audio Coding 3
Идентификатор кодека : 2000
Продолжительность : 1 h 54 min
Вид битрейта : Constant
Битрейт : 384 kb/s
Каналы : 6 channels
Расположение каналов : Front: L C R, Side: L R, LFE
Частота : 48.0 kHz
Частота кадров : 31.250 FPS (1536 SPF)
Битовая глубина : 16 bits
Метод сжатия : Lossy
Размер потока : 315 MiB (21%)
Выравнивание : Aligned on interleaves
Продолжительность промежутка : 32 ms (0.77 video frame)-
-

Скриншоты

--
-
[korsars.pro].t17832.torrent 
Торрент: Зарегистрирован [ 2018-11-18 22:48 ] · C3C57868E44879318E9EAB16E3DA675A6025E49D

Скачать .torrent

Размер .torrent файла 16 KB

Статус: проверено
.torrent скачан: 16 раз
Размер: 1,46 GB
Правила
Похожие темы

Вы не зарегистрированы на нашем сайте. Вам доступна для скачивания только часть контента. Чтобы увидеть весь контент сайта, пожалуйста, зарегистрироруйтесь.

Дешевый и быстрый Сидбокс

Ключи и пин-коды

Игры, Кредитные карты, IP-телефония, Интернет провайдеры, Мобильная связь, Спутниковое ТВ

Электронные книги

Бизнес и экономика, Дом, быт, семья, досуг, Санкт-Петербург, Компьютеры и интернет, Наука и образование, Техническая литература, Юридическая литература

Цифровые товары

iTunes & App Store, Базы данных, Дизайн, Доступ к ресурсам, Kарты продления, ключи, Фотографии, Шаблоны для сайтов

Программное обеспечение

Безопасность, Игры, PC, Интернет, Мобильная связь, Программирование, Продвижение сайтов (SEO), Утилиты
У Вас отключен VIP статус, поэтому Вам показывается реклама на сайте. Вы можете поддержать наш ресурс и приобрести VIP статус, тем самым отключив показ рекламы на сайте, а ещё VIP пользователи получают возможность

смотреть аниме онлайн в HD качестве

(не распространяется на раздел Flarrow Films), а так же получить 5 инвайтов, которыми можно поделиться с друзьями или знакомыми.
Дешевый и быстрый Сидбокс

Ключи и пин-коды

Игры, Кредитные карты, IP-телефония, Интернет провайдеры, Мобильная связь, Спутниковое ТВ

Электронные книги

Бизнес и экономика, Дом, быт, семья, досуг, Санкт-Петербург, Компьютеры и интернет, Наука и образование, Техническая литература, Юридическая литература

Цифровые товары

iTunes & App Store, Базы данных, Дизайн, Доступ к ресурсам, Kарты продления, ключи, Фотографии, Шаблоны для сайтов

Программное обеспечение

Безопасность, Игры, PC, Интернет, Мобильная связь, Программирование, Продвижение сайтов (SEO), Утилиты
[Профиль] [ЛС]
Показать сообщения:    
Ответить на тему

Текущее время: 06-Дек 20:40

Часовой пояс: UTC + 4



Вы не можете начинать темы
Вы не можете отвечать на сообщения
Вы не можете редактировать свои сообщения
Вы не можете удалять свои сообщения
Вы не можете голосовать в опросах
Вы не можете прикреплять файлы к сообщениям
Вы можете скачивать файлы
Анализ сайта korsars.pro Яндекс.Метрика