Как это заканчивается / How It Ends (Дэвид М. Розенталь) [2018, фантастика, боевик, триллер, драма, детектив, приключения, WEBRip 1080p | Flarrow Films]

Ответить на тему
Статистика раздачи [Обновить пиров]
Размер:  2,73 GB   |    Зарегистрирован:  3 года 1 месяц   |    .torrent скачан:  35 раз
Раздают:  76  [  0 KB/s  ]   Качают:  22  [  0 KB/s  ]   Подробная статистика пиров
 
   
 
 
Автор Сообщение

4udaki ®

Оффлайн

Медали


Пол: Мужской

Стаж: 6 лет 10 месяцев

Наличие запрета:

Сообщений: 11326

Откуда: korsars.pro

Отдача: 2 Mb/s

Загрузка: 20 Mb/s

Нажми


Скачать Adguard бесплатно

Создавать темы 19-Авг-2018 17:59

[Цитировать]

-Как это заканчивается / How It Ends-Год выпуска: 2018
Страна:
США
Жанр: фантастика, боевик, триллер, драма, детектив, приключения
Продолжительность: 01:53:13
Перевод: Любительский (многоголосый, закадровый)| Flarrow Films
Субтитры: Отсутствуют-В ролях: Тео Джеймс, Катерина Грэхэм, Нэнси Сорел, Николь Ари Паркер, Форест Уитакер, Anett Rumanoczky, Дж.Дж. Рамберг, Cheryl Gensiorek, Харприт Сингх Канда, Рон Вервимерен
Режиссёр: Дэвид М. Розенталь-Описание: Уилл и Саманта — счастливая пара, и скоро у них намечается пополнение в семье. Но Уилл не может поладить с тестем Томом, который злится из-за переезда дочери в другой город. Выяснение отношений приходится отложить, когда за Западном побережье происходит масштабная катастрофа. Электричество отключается, аэропорты закрыты, и Саманте явно грозит опасность. Уилл с Томом отправляются на её спасение.-Качество: WEBRip 1080p
Формат: MKV (MPEG-4 AVC)
Видео: 1920x1080, 3 160 kb/s, 23.976 FPS, 8 bits
Аудио RUS/ENG: AAC, 306 kb/s, 2 channels, 48.0 kHz-

Скриншоты

-

MediaInfo

General
Unique ID : 240751803192779593668483459868015061626 (0xB51F1C5667696361E6CD183564C1EA7A)
Complete name : D:\Downloads\Movies\How.It.Ends.2018.WEBRip1O8Op.Flarrow.Films.[free-tor].mkv
Format : Matroska
Format version : Version 4 / Version 2
File size : 2.73 GiB
Duration : 1 h 53 min
Overall bit rate mode : Variable
Overall bit rate : 3 448 kb/s
Encoded date : UTC 2018-08-18 16:30:10
Writing application : mkvmerge v21.0.0 ('Tardigrades Will Inherit The Earth') 64-bit
Writing library : libebml v1.3.5 + libmatroska v1.4.8
Video
ID : 1
Format : AVC
Format/Info : Advanced Video Codec
Format profile : Main@L4
Format settings : CABAC / 3 Ref Frames
Format settings, CABAC : Yes
Format settings, ReFrames : 3 frames
Codec ID : V_MPEG4/ISO/AVC
Duration : 1 h 53 min
Bit rate mode : Variable
Bit rate : 3 160 kb/s
Maximum bit rate : 4 740 kb/s
Width : 1 920 pixels
Height : 1 080 pixels
Display aspect ratio : 16:9
Frame rate mode : Constant
Frame rate : 23.976 (24000/1001) FPS
Color space : YUV
Chroma subsampling : 4:2:0
Bit depth : 8 bits
Scan type : Progressive
Bits/(Pixel*Frame) : 0.064
Stream size : 2.48 GiB (91%)
Writing library : x264 core 148 r2715 7e75228
Encoding settings : cabac=1 / ref=3 / deblock=1:0:0 / analyse=0x1:0x111 / me=umh / subme=10 / psy=1 / psy_rd=1.00:0.00 / mixed_ref=1 / me_range=24 / chroma_me=1 / trellis=2 / 8x8dct=0 / cqm=0 / deadzone=21,11 / fast_pskip=1 / chroma_qp_offset=-2 / threads=8 / lookahead_threads=1 / sliced_threads=0 / nr=0 / decimate=1 / interlaced=0 / bluray_compat=0 / stitchable=1 / constrained_intra=0 / bframes=2 / b_pyramid=0 / b_adapt=2 / b_bias=0 / direct=3 / weightb=1 / open_gop=0 / weightp=2 / keyint=48 / keyint_min=25 / scenecut=0 / intra_refresh=0 / rc_lookahead=48 / rc=2pass / mbtree=1 / bitrate=3160 / ratetol=1.0 / qcomp=0.50 / qpmin=6 / qpmax=51 / qpstep=4 / cplxblur=20.0 / qblur=0.5 / vbv_maxrate=4740 / vbv_bufsize=6320 / nal_hrd=vbr / filler=0 / ip_ratio=1.40 / aq=1:1.00
Default : Yes
Forced : No
Audio
ID : 2
Format : AAC
Format/Info : Advanced Audio Codec
Format profile : LC
Codec ID : A_AAC-2
Duration : 1 h 53 min
Bit rate : 306 kb/s
Channel(s) : 2 channels
Channel positions : Front: L R
Sampling rate : 48.0 kHz
Frame rate : 46.875 FPS (1024 SPF)
Compression mode : Lossy
Stream size : 248 MiB (9%)
Default : Yes
Forced : No
-

Над релизом работали

Релиз от:

Роли озвучивали:
Денис Кузьмичёв, Екатерина Дмитрова, Daelit, AshVoice, Lunar Arrow и Dreamy Sleep.
-
[korsars.pro].t16570.torrent 
Торрент: Зарегистрирован [ 2018-08-19 17:59 ] · BF728FA1BCFA86F44C8AD059535D23E88F874841

Скачать .torrent

Размер .torrent файла 15 KB

Статус: проверено
.torrent скачан: 35 раз
Размер: 2,73 GB
Правила
Skorp10n(19-Авг-18)
Похожие темы

Вы не зарегистрированы на нашем сайте. Вам доступна для скачивания только часть контента. Чтобы увидеть весь контент сайта, пожалуйста, зарегистрироруйтесь.

Дешевый и быстрый Сидбокс

Ключи и пин-коды

Игры, Кредитные карты, IP-телефония, Интернет провайдеры, Мобильная связь, Спутниковое ТВ

Электронные книги

Бизнес и экономика, Дом, быт, семья, досуг, Санкт-Петербург, Компьютеры и интернет, Наука и образование, Техническая литература, Юридическая литература

Цифровые товары

iTunes & App Store, Базы данных, Дизайн, Доступ к ресурсам, Kарты продления, ключи, Фотографии, Шаблоны для сайтов

Программное обеспечение

Безопасность, Игры, PC, Интернет, Мобильная связь, Программирование, Продвижение сайтов (SEO), Утилиты
У Вас отключен VIP статус, поэтому Вам показывается реклама на сайте. Вы можете поддержать наш ресурс и приобрести VIP статус, тем самым отключив показ рекламы на сайте, а ещё VIP пользователи получают возможность

смотреть аниме онлайн в HD качестве

(не распространяется на раздел Flarrow Films), а так же получить 5 инвайтов, которыми можно поделиться с друзьями или знакомыми.
Дешевый и быстрый Сидбокс

Ключи и пин-коды

Игры, Кредитные карты, IP-телефония, Интернет провайдеры, Мобильная связь, Спутниковое ТВ

Электронные книги

Бизнес и экономика, Дом, быт, семья, досуг, Санкт-Петербург, Компьютеры и интернет, Наука и образование, Техническая литература, Юридическая литература

Цифровые товары

iTunes & App Store, Базы данных, Дизайн, Доступ к ресурсам, Kарты продления, ключи, Фотографии, Шаблоны для сайтов

Программное обеспечение

Безопасность, Игры, PC, Интернет, Мобильная связь, Программирование, Продвижение сайтов (SEO), Утилиты
[Профиль] [ЛС]
Показать сообщения:    
Ответить на тему

Текущее время: 25-Сен 09:56

Часовой пояс: UTC + 4



Вы не можете начинать темы
Вы не можете отвечать на сообщения
Вы не можете редактировать свои сообщения
Вы не можете удалять свои сообщения
Вы не можете голосовать в опросах
Вы не можете прикреплять файлы к сообщениям
Вы можете скачивать файлы
Анализ сайта korsars.pro Яндекс.Метрика