Смерть Супермена / The Death of Superman (Jake Castorena, Сэм Лью) [2018, мультфильм, фантастика, боевик, WEB-DLRip 1080p | Flarrow Films | Без рекламы]

Ответить на тему
Статистика раздачи [Обновить пиров]
Размер:  3,09 GB   |    Зарегистрирован:  2 года 9 месяцев   |    .torrent скачан:  44 раза
Раздают:  24  [  0 KB/s  ]   Качают:  5  [  0 KB/s  ]   Подробная статистика пиров
 
   
 
 
Автор Сообщение

4udaki ®

Оффлайн

Медали


Пол: Мужской

Стаж: 6 лет 6 месяцев

Наличие запрета:

Сообщений: 10117

Откуда: korsars.pro

Отдача: 2 Mb/s

Загрузка: 20 Mb/s

Нажми


Скачать Adguard бесплатно

Создавать темы 29-Июл-2018 15:49

[Цитировать]

-Смерть Супермена / The Death of Superman-Год выпуска: 2018
Страна:
США
Жанр: мультфильм, фантастика, боевик
Продолжительность: 01:20:54
Перевод: Любительский (многоголосый, закадровый) | Flarrow Films
Субтитры: отсутствуют-В ролях: Джерри О’Коннелл, Ребекка Ромейн, Рэйн Уилсон, Розарио Доусон, Нэйтан Филлион, Кристофер Горам, Мэтт Лантер, Шемар Мур, Ньямби Ньямби, Джейсон О’Мара
Режиссёр: Jake Castorena, Сэм Лью-Рейтинг:
-Описание: Кларк Кент подумывает о том, чтобы раскрыть возлюбленной Лоис Лэйн свой самый большой секрет — что он является Суперменом. В это же время на Землю прибывает страшное чудовище Думсдэй, обладающее невероятной силой и злобой. Все супергерои в составе Лиги справедливости с трудом сдерживают монстра, поэтому Супермену придётся отложить свои личные дела и постараться помочь товарищам победить врага.-Качество: WEB-DLRip 1080p
Формат: MKV (MPEG-4 AVC)
Видео: 1920x1078, 5155 kb/s, 23.976 FPS, 8 bits
Аудио RUS: AAC, 312 kb/s, 48.0 kHz, 2 channels-

Скриншоты

-

MediaInfo

General
Unique ID : 163515301853787784988912439318746254039 (0x7B03E6D09B1966D581A6603FEBE84AD7)
Complete name : D:\Downloads\Movies\The.Death.of.SupermanWEB-DLRip.1O8Op.Flarrow.Films.[free-tor].mkv
Format : Matroska
Format version : Version 4 / Version 2
File size : 3.09 GiB
Duration : 1 h 20 min
Overall bit rate : 5 470 kb/s
Movie name : The.Death.of.Superman.2018.1080p.WEB-DL.DD5.1.H264-FGT
Encoded date : UTC 2018-07-09 16:56:13
Writing application : mkvmerge v21.0.0 ('Tardigrades Will Inherit The Earth') 64-bit
Writing library : libebml v1.3.5 + libmatroska v1.4.8
Cover : Yes
Attachments : small_cover.jpg / small_cover_land.jpg / cover.jpg / cover_land.jpg
Video
ID : 1
Format : AVC
Format/Info : Advanced Video Codec
Format profile : High@L4
Format settings : CABAC / 4 Ref Frames
Format settings, CABAC : Yes
Format settings, ReFrames : 4 frames
Codec ID : V_MPEG4/ISO/AVC
Duration : 1 h 20 min
Bit rate : 5 155 kb/s
Width : 1 920 pixels
Height : 1 078 pixels
Display aspect ratio : 16:9
Frame rate mode : Constant
Frame rate : 23.976 FPS
Color space : YUV
Chroma subsampling : 4:2:0
Bit depth : 8 bits
Scan type : Progressive
Bits/(Pixel*Frame) : 0.104
Stream size : 2.91 GiB (94%)
Title : The.Death.of.Superman.2018.1080p.WEB-DL.DD5.1.H264-FGT
Language : English
Default : Yes
Forced : No
Color range : Limited
Color primaries : BT.709
Transfer characteristics : BT.709
Matrix coefficients : BT.709
Audio
ID : 2
Format : AAC
Format/Info : Advanced Audio Codec
Format profile : LC
Codec ID : A_AAC-2
Duration : 1 h 20 min
Bit rate : 312 kb/s
Channel(s) : 2 channels
Channel positions : Front: L R
Sampling rate : 48.0 kHz
Frame rate : 46.875 FPS (1024 SPF)
Compression mode : Lossy
Stream size : 181 MiB (6%)
Default : Yes
Forced : No
-

Над релизом работали

Релиз от:

Роли озвучивали:
Дмитрий Савкин, Екатерина Дмитрова, Денис Кузьмичёв, Lunar Arrow, Daelit, Ron, Ofelia, AshVoice, Nogoodvoice
-
[korsars.pro].t16341.torrent 
Торрент: Зарегистрирован [ 2018-07-29 15:49 ] · 8A6EC31AD4A56C0522D73039E83BDCC984058B76

Скачать .torrent

Размер .torrent файла 16 KB

Статус: проверено
.torrent скачан: 44 раз
Размер: 3,09 GB
Правила
Listii(04-Авг-18)
Похожие темы

Вы не зарегистрированы на нашем сайте. Вам доступна для скачивания только часть контента. Чтобы увидеть весь контент сайта, пожалуйста, зарегистрироруйтесь.

У Вас отключен VIP статус, поэтому Вам показывается реклама на сайте. Вы можете поддержать наш ресурс и приобрести VIP статус, тем самым отключив показ рекламы на сайте, а ещё VIP пользователи получают возможность

смотреть аниме онлайн в HD качестве

(не распространяется на раздел Flarrow Films), а так же получить 5 инвайтов, которыми можно поделиться с друзьями или знакомыми.
[Профиль] [ЛС]
Показать сообщения:    
Ответить на тему

Текущее время: 09-Май 08:34

Часовой пояс: UTC + 4



Вы не можете начинать темы
Вы не можете отвечать на сообщения
Вы не можете редактировать свои сообщения
Вы не можете удалять свои сообщения
Вы не можете голосовать в опросах
Вы не можете прикреплять файлы к сообщениям
Вы можете скачивать файлы
Анализ сайта korsars.pro Яндекс.Метрика