Настоящее преступление / True Crimes (Александрос Авранас) [2018, триллер, драма, криминал, HDRip 1080p | Flarrow Films | Без рекламы]

Ответить на тему
Статистика раздачи [Обновить пиров]
Размер:  3,64 GB   |    Зарегистрирован:  3 года 1 месяц   |    .torrent скачан:  23 раза
Раздают:  42  [  0 KB/s  ]   Качают:  7  [  0 KB/s  ]   Подробная статистика пиров
 
   
 
 
Автор Сообщение

4udaki ®

Оффлайн

Медали


Пол: Мужской

Стаж: 6 лет 10 месяцев

Наличие запрета:

Сообщений: 11326

Откуда: korsars.pro

Отдача: 2 Mb/s

Загрузка: 20 Mb/s

Нажми


Скачать Adguard бесплатно

Создавать темы 29-Июл-2018 02:36

[Цитировать]

-Настоящее преступление / True Crimes-Год выпуска: 2018
Страна:
Великобритания, Польша, США
Жанр: триллер, драма, криминал
Продолжительность: 01:32:59
Перевод: Любительский (многоголосый, закадровый)| Flarrow Films
Субтитры: Отсутствуют-В ролях: Джим Керри, Шарлотта Генсбур, Мартон Чокаш, Кати Оутинен, Влад Иванов, Агата Кулеша, Роберт Венцкевич, Петр Гловацкий, Анна Полоны, Збигнев Замаховский
Режиссёр: Александрос Авранас-Рейтинг:
-Описание: В центре сюжета оказывается краковский следователь Тадек, которому не дает покоя давнее дело, так и не раскрытое полицией. Оно было связано с деятельностью влиятельного бизнесмена, тело которого было найдено в реке. Погибший был одним их тех, кто содержал подпольный клуб, предоставлявший посетителям особые интим услуги.
Спустя некоторое время следователь неожиданно обнаруживает тесную связь между популярным драматическим произведением писателя Козлова и событиями, так или иначе связанными с тем самым клубом. Посчитав сходство в некоторых деталях больше, чем просто совпадением, Тадек добивается возобновления расследования.-Качество: HDRip 1080p
Формат: MKV (MPEG-4 AVC)
Видео: 1920x800, 5303 kb/s, 23.976 FPS, 8 bit
Аудио RUS/ENG: AAC, 288 kb/s, 48.0 kHz, 2 channels-

Скриншоты

-

MediaInfo

General
Unique ID : 298151248671438562408747930355696283100 (0xE04DD77EB732A0F825F0EE1130A22DDC)
Complete name : D:\Downloads\Movies\True.Crimes.HDRip.1O8Op.Flarrow.Films.[free-tor].mkv
Format : Matroska
Format version : Version 4 / Version 2
File size : 3.64 GiB
Duration : 1 h 32 min
Overall bit rate mode : Variable
Overall bit rate : 5 598 kb/s
Encoded date : UTC 2018-07-24 11:40:57
Writing application : mkvmerge v21.0.0 ('Tardigrades Will Inherit The Earth') 64-bit
Writing library : libebml v1.3.5 + libmatroska v1.4.8
Video
ID : 1
Format : AVC
Format/Info : Advanced Video Codec
Format profile : High@L4
Format settings : CABAC / 4 Ref Frames
Format settings, CABAC : Yes
Format settings, ReFrames : 4 frames
Codec ID : V_MPEG4/ISO/AVC
Duration : 1 h 32 min
Bit rate mode : Variable
Bit rate : 5 303 kb/s
Maximum bit rate : 15.0 Mb/s
Width : 1 920 pixels
Height : 800 pixels
Display aspect ratio : 2.40:1
Frame rate mode : Constant
Frame rate : 23.976 (24000/1001) FPS
Color space : YUV
Chroma subsampling : 4:2:0
Bit depth : 8 bits
Scan type : Progressive
Bits/(Pixel*Frame) : 0.144
Stream size : 3.44 GiB (95%)
Default : Yes
Forced : No
Color range : Limited
Color primaries : BT.709
Transfer characteristics : BT.709
Matrix coefficients : BT.709
Audio
ID : 2
Format : AAC
Format/Info : Advanced Audio Codec
Format profile : LC
Codec ID : A_AAC-2
Duration : 1 h 32 min
Bit rate : 288 kb/s
Channel(s) : 2 channels
Channel positions : Front: L R
Sampling rate : 48.0 kHz
Frame rate : 46.875 FPS (1024 SPF)
Compression mode : Lossy
Stream size : 194 MiB (5%)
Default : Yes
Forced : No
-

Над релизом работали

Релиз от:

Роли озвучивали:
Алексей Воленко, Денис Кузьмичёв, Снежанна Строева, Настасья, Семён Евсиков, Богдан Дрюшков
-
[korsars.pro].t16336.torrent 
Торрент: Зарегистрирован [ 2018-07-29 02:36 ] · 575E8D6BA35ACD302754274174E8CB5E881BFBB0

Скачать .torrent

Размер .torrent файла 19 KB

Статус: проверено
.torrent скачан: 23 раз
Размер: 3,64 GB
Правила
Похожие темы

Вы не зарегистрированы на нашем сайте. Вам доступна для скачивания только часть контента. Чтобы увидеть весь контент сайта, пожалуйста, зарегистрироруйтесь.

Дешевый и быстрый Сидбокс

Ключи и пин-коды

Игры, Кредитные карты, IP-телефония, Интернет провайдеры, Мобильная связь, Спутниковое ТВ

Электронные книги

Бизнес и экономика, Дом, быт, семья, досуг, Санкт-Петербург, Компьютеры и интернет, Наука и образование, Техническая литература, Юридическая литература

Цифровые товары

iTunes & App Store, Базы данных, Дизайн, Доступ к ресурсам, Kарты продления, ключи, Фотографии, Шаблоны для сайтов

Программное обеспечение

Безопасность, Игры, PC, Интернет, Мобильная связь, Программирование, Продвижение сайтов (SEO), Утилиты
У Вас отключен VIP статус, поэтому Вам показывается реклама на сайте. Вы можете поддержать наш ресурс и приобрести VIP статус, тем самым отключив показ рекламы на сайте, а ещё VIP пользователи получают возможность

смотреть аниме онлайн в HD качестве

(не распространяется на раздел Flarrow Films), а так же получить 5 инвайтов, которыми можно поделиться с друзьями или знакомыми.
Дешевый и быстрый Сидбокс

Ключи и пин-коды

Игры, Кредитные карты, IP-телефония, Интернет провайдеры, Мобильная связь, Спутниковое ТВ

Электронные книги

Бизнес и экономика, Дом, быт, семья, досуг, Санкт-Петербург, Компьютеры и интернет, Наука и образование, Техническая литература, Юридическая литература

Цифровые товары

iTunes & App Store, Базы данных, Дизайн, Доступ к ресурсам, Kарты продления, ключи, Фотографии, Шаблоны для сайтов

Программное обеспечение

Безопасность, Игры, PC, Интернет, Мобильная связь, Программирование, Продвижение сайтов (SEO), Утилиты
[Профиль] [ЛС]
Показать сообщения:    
Ответить на тему

Текущее время: 25-Сен 10:17

Часовой пояс: UTC + 4



Вы не можете начинать темы
Вы не можете отвечать на сообщения
Вы не можете редактировать свои сообщения
Вы не можете удалять свои сообщения
Вы не можете голосовать в опросах
Вы не можете прикреплять файлы к сообщениям
Вы можете скачивать файлы
Анализ сайта korsars.pro Яндекс.Метрика