Дафна и Велма / Daphne & Velma (Сьюзи Йюнесси) [2018, ужасы, боевик, комедия, криминал, HDRip 1080p | Flarrow Films | Без рекламы]

Ответить на тему
Статистика раздачи [Обновить пиров]
Размер:  1,47 GB   |    Зарегистрирован:  3 года 3 месяца   |    .torrent скачан:  26 раз
Раздают:  88  [  0 KB/s  ]   Качают:  6  [  0 KB/s  ]   Подробная статистика пиров
 
   
 
 
Автор Сообщение

4udaki ®

Оффлайн

Медали


Пол: Мужской

Стаж: 6 лет 10 месяцев

Наличие запрета:

Сообщений: 11323

Откуда: korsars.pro

Отдача: 2 Mb/s

Загрузка: 20 Mb/s

Нажми


Скачать Adguard бесплатно

Создавать темы 25-Июн-2018 21:59

[Цитировать]

-Дафна и Велма-Год выпуска: 2018
Страна:
США
Жанр: ужасы, боевик, комедия, криминал
Продолжительность: 01:15:12
Перевод: Любительский (многоголосый, закадровый)| Flarrow Films
Субтитры: Отсутствуют-В ролях: Сара Джеффери, Сара Гилман, Ванесса Марано, Кортни Дитц, Стивен Руффин, Fray Forde, Ивэн Кастелло, Дэниэл Салиерс, Брайан Степанек, Адам Фэйзон
Режиссёр: Сьюзи Йюнесси-Рейтинг:
-Описание: Девушки из будущей «Мистической Корпорации» расследуют странные события в своей школе.-Качество: HDRip 1080p
Формат: MKV (MPEG-4 AVC)
Видео: 1920x1080, 2 500 kb/s, 23.976 (23976/1000) FPS, 8 bits
Аудио RUS/ENG: AAC, 302 kb/s, 2 channels-

Скриншоты

-

MediaInfo

General
Unique ID : 103903723570791245813762518841787013919 (0x4E2B2116E903900CAB264FE329F5DB1F)
Complete name : D:\Downloads\Movies\Daphne.and.Velma.HDRip.1080p.2018.Flarrow.Films.FREE-TOR.mkv
Format : Matroska
Format version : Version 4 / Version 2
File size : 1.47 GiB
Duration : 1 h 15 min
Overall bit rate : 2 803 kb/s
Encoded date : UTC 2018-06-25 10:49:48
Writing application : mkvmerge v21.0.0 ('Tardigrades Will Inherit The Earth') 64-bit
Writing library : libebml v1.3.5 + libmatroska v1.4.8
Video
ID : 1
Format : AVC
Format/Info : Advanced Video Codec
Format profile : High@L4.1
Format settings : CABAC / 4 Ref Frames
Format settings, CABAC : Yes
Format settings, ReFrames : 4 frames
Codec ID : V_MPEG4/ISO/AVC
Duration : 1 h 15 min
Bit rate : 2 500 kb/s
Width : 1 920 pixels
Height : 1 080 pixels
Display aspect ratio : 16:9
Frame rate mode : Constant
Frame rate : 23.976 (23976/1000) FPS
Color space : YUV
Chroma subsampling : 4:2:0
Bit depth : 8 bits
Scan type : Progressive
Bits/(Pixel*Frame) : 0.050
Stream size : 1.31 GiB (89%)
Writing library : x264 core 152 r2851M ba24899
Encoding settings : cabac=1 / ref=4 / deblock=1:-1:-1 / analyse=0x3:0x113 / me=umh / subme=9 / psy=1 / psy_rd=1.00:0.15 / mixed_ref=1 / me_range=24 / chroma_me=1 / trellis=2 / 8x8dct=1 / cqm=0 / deadzone=21,11 / fast_pskip=1 / chroma_qp_offset=-3 / threads=32 / lookahead_threads=4 / sliced_threads=0 / nr=0 / decimate=1 / interlaced=0 / bluray_compat=0 / constrained_intra=0 / bframes=3 / b_pyramid=2 / b_adapt=2 / b_bias=0 / direct=3 / weightb=1 / open_gop=0 / weightp=2 / keyint=250 / keyint_min=25 / scenecut=40 / intra_refresh=0 / rc_lookahead=50 / rc=2pass / mbtree=1 / bitrate=2500 / ratetol=1.0 / qcomp=0.60 / qpmin=0 / qpmax=69 / qpstep=4 / cplxblur=20.0 / qblur=0.5 / vbv_maxrate=31250 / vbv_bufsize=31250 / nal_hrd=none / filler=0 / ip_ratio=1.40 / aq=3:1.00
Default : Yes
Forced : No
Audio
ID : 2
Format : AAC
Format/Info : Advanced Audio Codec
Format profile : LC
Codec ID : A_AAC-2
Duration : 1 h 15 min
Bit rate : 302 kb/s
Channel(s) : 2 channels
Channel positions : Front: L R
Sampling rate : 48.0 kHz
Frame rate : 46.875 FPS (1024 SPF)
Compression mode : Lossy
Stream size : 162 MiB (11%)
Default : Yes
Forced : No
-

Над релизом работали

Релиз от:

Роли озвучивали:
Dreamy Sleep, Shira Senpai, Лизавета, Ofelia, Lunar Arrow, Bzeke и Cpt Drusha.
Перевод: Аня Савицкая и Dreamy Sleep.
-
[korsars.pro].t16034.torrent 
Торрент: Зарегистрирован [ 2018-06-25 21:59 ] · 3EABB86D77812200CDDAE94D729F7BFA71374A5B

Скачать .torrent

Размер .torrent файла 16 KB

Статус: проверено
.torrent скачан: 26 раз
Размер: 1,47 GB
Правила
Похожие темы

Вы не зарегистрированы на нашем сайте. Вам доступна для скачивания только часть контента. Чтобы увидеть весь контент сайта, пожалуйста, зарегистрироруйтесь.

Дешевый и быстрый Сидбокс

Ключи и пин-коды

Игры, Кредитные карты, IP-телефония, Интернет провайдеры, Мобильная связь, Спутниковое ТВ

Электронные книги

Бизнес и экономика, Дом, быт, семья, досуг, Санкт-Петербург, Компьютеры и интернет, Наука и образование, Техническая литература, Юридическая литература

Цифровые товары

iTunes & App Store, Базы данных, Дизайн, Доступ к ресурсам, Kарты продления, ключи, Фотографии, Шаблоны для сайтов

Программное обеспечение

Безопасность, Игры, PC, Интернет, Мобильная связь, Программирование, Продвижение сайтов (SEO), Утилиты
У Вас отключен VIP статус, поэтому Вам показывается реклама на сайте. Вы можете поддержать наш ресурс и приобрести VIP статус, тем самым отключив показ рекламы на сайте, а ещё VIP пользователи получают возможность

смотреть аниме онлайн в HD качестве

(не распространяется на раздел Flarrow Films), а так же получить 5 инвайтов, которыми можно поделиться с друзьями или знакомыми.
Дешевый и быстрый Сидбокс

Ключи и пин-коды

Игры, Кредитные карты, IP-телефония, Интернет провайдеры, Мобильная связь, Спутниковое ТВ

Электронные книги

Бизнес и экономика, Дом, быт, семья, досуг, Санкт-Петербург, Компьютеры и интернет, Наука и образование, Техническая литература, Юридическая литература

Цифровые товары

iTunes & App Store, Базы данных, Дизайн, Доступ к ресурсам, Kарты продления, ключи, Фотографии, Шаблоны для сайтов

Программное обеспечение

Безопасность, Игры, PC, Интернет, Мобильная связь, Программирование, Продвижение сайтов (SEO), Утилиты
[Профиль] [ЛС]
Показать сообщения:    
Ответить на тему

Текущее время: 27-Сен 23:36

Часовой пояс: UTC + 4



Вы не можете начинать темы
Вы не можете отвечать на сообщения
Вы не можете редактировать свои сообщения
Вы не можете удалять свои сообщения
Вы не можете голосовать в опросах
Вы не можете прикреплять файлы к сообщениям
Вы можете скачивать файлы
Анализ сайта korsars.pro Яндекс.Метрика