Бэтмен-ниндзя / Batman Ninja (Дзюнпэй Мидзусаки) [2018, аниме, мультфильм, боевик, фантастика, фэнтези, WEB-DLRip 720p | Flarrow Films]

Ответить на тему
Статистика раздачи [Обновить пиров]
Размер:  3,22 GB   |    Зарегистрирован:  3 года 1 месяц   |    .torrent скачан:  45 раз
Раздают:  70  [  0 KB/s  ]   Качают:  4  [  0 KB/s  ]   Подробная статистика пиров
 
   
 
 
Автор Сообщение

4udaki ®

Оффлайн

Медали


Пол: Мужской

Стаж: 6 лет 7 месяцев

Наличие запрета:

Сообщений: 10588

Откуда: korsars.pro

Отдача: 2 Mb/s

Загрузка: 20 Mb/s

Нажми


Скачать Adguard бесплатно

Создавать темы 30-Апр-2018 18:30

[Цитировать]

-Бэтмен-ниндзя / Batman Ninja-Год выпуска: 2018
Страна:
Япония, США
Жанр: аниме, мультфильм, боевик, фантастика, фэнтези
Продолжительность: 01:25:14
Перевод: Любительский (многоголосый, закадровый) | Flarrow Films
Субтитры: отсутствуют-В ролях: Коити Ямадэра, Ватару Такаги, Риэ Кугимия, Аи Какума, Хотю Оцука, Такэхито Коясу, Тосиюки Морикава, Кэнта Миякэ, Юити Нагасима, Кэнго Каваниси
Режиссёр: Дзюнпэй Мидзусаки-Рейтинг:
-Описание: Попав в поле действия машины времени, изобретенной Гориллой Гроддом, Бэтмен переносится в средневековую Японию. Там оказывается, что уже неплохо ояпонившиеся злодеи Готэма возглавляют отдельные княжества, и достигший определенного влияния Джокер наконец-то дождался прибытия своего главного врага. Но не все хотят смерти Брюса Уэйна — Женщина-кошка и верный слуга Альфред тоже с нетерпением ждали появления Бэтмена.-Качество: WEB-DLRip 720p
Формат: MKV (MPEG-4 AVC)
Видео: 3 994 Кбит/с, 1280x720, ~ 23.976 FPS
Аудио RUS: PCM (A_PCM/INT/LIT), 2 ch, 1 411.2 Кбит/с, 44.1 kHz-

Скриншоты

-

MediaInfo

General
Unique ID : 194245686186875879586262983047973460141 (0x92225BBD73532D379E88003441B058AD)
Complete name : D:\Downloads\Movies\Batman.Ninja.Flarrow.Films.[free-tor].mkv
Format : Matroska
Format version : Version 4 / Version 2
File size : 3.22 GiB
Duration : 1 h 25 min
Overall bit rate : 5 406 kb/s
Movie name : Batman.Ninja.2018.720p.WEB-DL.DD5.1.H264-FGT
Encoded date : UTC 2018-04-30 13:11:58
Writing application : mkvmerge v8.3.0 ('Over the Horizon') 64bit
Writing library : libebml v1.3.1 + libmatroska v1.4.2
Video
ID : 1
Format : AVC
Format/Info : Advanced Video Codec
Format profile : High@L3.1
Format settings : 2 Ref Frames
Format settings, CABAC : No
Format settings, ReFrames : 2 frames
Codec ID : V_MPEG4/ISO/AVC
Duration : 1 h 25 min
Bit rate : 3 994 kb/s
Width : 1 280 pixels
Height : 720 pixels
Display aspect ratio : 16:9
Frame rate mode : Constant
Frame rate : 23.976 (24000/1001) FPS
Color space : YUV
Chroma subsampling : 4:2:0
Bit depth : 8 bits
Scan type : Progressive
Bits/(Pixel*Frame) : 0.181
Stream size : 2.38 GiB (74%)
Title : Batman.Ninja.2018.720p.WEB-DL.DD5.1.H264-FGT
Language : English
Default : Yes
Forced : No
Color range : Limited
Color primaries : BT.709
Transfer characteristics : BT.709
Matrix coefficients : BT.709
Audio
ID : 2
Format : PCM
Format settings : Little / Signed
Codec ID : A_PCM/INT/LIT
Duration : 1 h 25 min
Bit rate mode : Constant
Bit rate : 1 411.2 kb/s
Channel(s) : 2 channels
Sampling rate : 44.1 kHz
Frame rate : 5.000 FPS (8820 SPF)
Bit depth : 16 bits
Stream size : 860 MiB (26%)
Default : Yes
Forced : No
-

Над релизом работали

Релиз от:

Роли озвучивали:
Глеб Петров, Dreamy Sleep, hAl, Lunar Arrow, Ron, Molli_bolli и Cpt Drusha.
-
[korsars.pro].t15414.torrent 
Торрент: Зарегистрирован [ 2018-04-30 18:30 ] · E7EBE9ACC276C42C4109ACE8C7F0A0F70A43C059

Скачать .torrent

Размер .torrent файла 16 KB

Статус: проверено
.torrent скачан: 45 раз
Размер: 3,22 GB
Правила
Skorp10n(30-Апр-18)
Похожие темы

Вы не зарегистрированы на нашем сайте. Вам доступна для скачивания только часть контента. Чтобы увидеть весь контент сайта, пожалуйста, зарегистрироруйтесь.

Дешевый и быстрый Сидбокс

Ключи и пин-коды

Игры, Кредитные карты, IP-телефония, Интернет провайдеры, Мобильная связь, Спутниковое ТВ

Электронные книги

Бизнес и экономика, Дом, быт, семья, досуг, Санкт-Петербург, Компьютеры и интернет, Наука и образование, Техническая литература, Юридическая литература

Цифровые товары

iTunes & App Store, Базы данных, Дизайн, Доступ к ресурсам, Kарты продления, ключи, Фотографии, Шаблоны для сайтов

Программное обеспечение

Безопасность, Игры, PC, Интернет, Мобильная связь, Программирование, Продвижение сайтов (SEO), Утилиты
У Вас отключен VIP статус, поэтому Вам показывается реклама на сайте. Вы можете поддержать наш ресурс и приобрести VIP статус, тем самым отключив показ рекламы на сайте, а ещё VIP пользователи получают возможность

смотреть аниме онлайн в HD качестве

(не распространяется на раздел Flarrow Films), а так же получить 5 инвайтов, которыми можно поделиться с друзьями или знакомыми.
Дешевый и быстрый Сидбокс

Ключи и пин-коды

Игры, Кредитные карты, IP-телефония, Интернет провайдеры, Мобильная связь, Спутниковое ТВ

Электронные книги

Бизнес и экономика, Дом, быт, семья, досуг, Санкт-Петербург, Компьютеры и интернет, Наука и образование, Техническая литература, Юридическая литература

Цифровые товары

iTunes & App Store, Базы данных, Дизайн, Доступ к ресурсам, Kарты продления, ключи, Фотографии, Шаблоны для сайтов

Программное обеспечение

Безопасность, Игры, PC, Интернет, Мобильная связь, Программирование, Продвижение сайтов (SEO), Утилиты
[Профиль] [ЛС]
Показать сообщения:    
Ответить на тему

Текущее время: 19-Июн 19:26

Часовой пояс: UTC + 4



Вы не можете начинать темы
Вы не можете отвечать на сообщения
Вы не можете редактировать свои сообщения
Вы не можете удалять свои сообщения
Вы не можете голосовать в опросах
Вы не можете прикреплять файлы к сообщениям
Вы можете скачивать файлы
Анализ сайта korsars.pro Яндекс.Метрика