Вторжение / Invasion [02x01-02 из 10] (2023) WEB-DLRip-AVC | HDrezka Studio

Ответить на тему
Статистика раздачи [Обновить пиров]
Размер:  1.74 GB   |    Зарегистрирован:  8 месяцев 30 дней   |    .torrent скачан:  1 раз
Раздают:  151  [  0 KB/s  ]   Качают:  78  [  0 KB/s  ]   Подробная статистика пиров
   
 
Автор Сообщение

ExPlayer ®

Оффлайн

Медали


Пол: Мужской

Стаж: 9 лет 6 месяцев

Наличие запрета:

Сообщений: 60425

Откуда: korsars.pro

Отдача: 100 Mb/s

Загрузка: 100 Mb/s



AdGuard VPN - бесплатный, надёжный и быстрый VPN

Создавать темы 01-Сен-2023 01:00

[Цитировать]


Информация о фильме
Название: Вторжение
Оригинальное название: Invasion
Год выхода: 2023
Жанр: Фантастика, фэнтези, драма
Режиссер: Аманда Марсалис, Джэми Пэйн, Якоб Вербрюгген
В ролях: Тара Моайеди, Эжи Робертсон, Даисукэ Цудзи, Билли Бэррэтт, Индия Браун, Пэдди Холланд, Кэш Вандерпуйе, Того Игава, Луис Тогхилл, Том Каллен
О фильме:
Вторжение инопланетян глазами нескольких людей с разных континентов.

Страна: США
Продолжительность: ~00:55:00 серия
Перевод: Профессиональный (многоголосый, закадровый) HDrezka Studio
Файл
Кодек: MKV
Качество: WEB-DLRip-AVC
Видео: AVC, 1024x424 (2,40:1), 1800 kbps (0.173 b/px), 23.976 fps
Звук: AC3, 448 kbps (CBR), 48.0 KHz (16 bits), 6 ch, Russian - HDrezka Studio
Субтитры:
Russian (Forced, Full)
РЕКЛАМЫ НЕТ

MediaInfo

Общее
Уникальный идентификатор : 228086508753741469156699428657962962642 (0xAB97DD1C3A11609A2B564B0FE8AC4ED2)
Полное имя : E:сериалыInvasion.S02.WEB-DLRip-AVCInvasion.S02E01.WEB-DLRip-AVC.TR.mkv
Формат : Matroska
Версия формата : Version 4
Размер файла : 933 Мбайт
Продолжительность : 58 м. 2 с.
Общий поток : 2 248 Кбит/сек
Дата кодирования : UTC 2023-08-28 12:51:02
Программа кодирования : mkvmerge v35.0.0 ('All The Love In The World') 64-bit
Библиотека кодирования : libebml v1.3.9 + libmatroska v1.5.2
Видео
Идентификатор : 1
Формат : AVC
Формат/Информация : Advanced Video Codec
Профиль формата : High@L4.1
Настройки формата : CABAC / 9 Ref Frames
Параметр CABAC формата : Да
Параметр RefFrames формата : 9 кадров
Идентификатор кодека : V_MPEG4/ISO/AVC
Продолжительность : 58 м. 1 с.
Битрейт : 1 800 Кбит/сек
Ширина : 1 024 пикселя
Высота : 424 пикселя
Соотношение сторон : 2,40:1
Режим частоты кадров : Постоянный
Частота кадров : 23,976 (24000/1001) кадра/сек
Цветовое пространство : YUV
Субдискретизация насыщенности : 4:2:0
Битовая глубина : 8 бит
Тип развёртки : Прогрессивная
Бит/(Пиксели*Кадры) : 0.173
Размер потока : 746 Мбайт (80%)
Библиотека кодирования : x264 core 146 r2538 121396c
Настройки программы : cabac=1 / ref=9 / deblock=1:-2:-1 / analyse=0x3:0x113 / me=umh / subme=10 / psy=1 / psy_rd=1.00:0.15 / mixed_ref=1 / me_range=32 / chroma_me=1 / trellis=2 / 8x8dct=1 / cqm=0 / deadzone=21,11 / fast_pskip=0 / chroma_qp_offset=-3 / threads=30 / lookahead_threads=3 / sliced_threads=0 / nr=0 / decimate=1 / interlaced=0 / bluray_compat=0 / constrained_intra=0 / bframes=8 / b_pyramid=2 / b_adapt=2 / b_bias=0 / direct=1 / weightb=1 / open_gop=0 / weightp=2 / keyint=240 / keyint_min=23 / scenecut=40 / intra_refresh=0 / rc_lookahead=40 / rc=2pass / mbtree=0 / bitrate=1800 / ratetol=1.0 / qcomp=0.60 / qpmin=0 / qpmax=69 / qpstep=4 / cplxblur=20.0 / qblur=0.5 / vbv_maxrate=14000 / vbv_bufsize=14000 / nal_hrd=none / filler=0 / ip_ratio=1.40 / pb_ratio=1.30 / aq=1:1.00
Default : Да
Forced : Нет
Аудио
Идентификатор : 2
Формат : AC-3
Формат/Информация : Audio Coding 3
Коммерческое название : Dolby Digital
Идентификатор кодека : A_AC3
Продолжительность : 58 м. 2 с.
Вид битрейта : Постоянный
Битрейт : 448 Кбит/сек
Каналы : 6 каналов
Channel layout : L R C LFE Ls Rs
Частота : 48,0 КГц
Частота кадров : 31,250 кадров/сек (1536 SPF)
Метод сжатия : С потерями
Размер потока : 186 Мбайт (20%)
Заголовок : HDR
Язык : Russian
Service kind : Complete Main
Default : Да
Forced : Нет
Текст #1
Идентификатор : 3
Формат : UTF-8
Идентификатор кодека : S_TEXT/UTF8
Идентификатор кодека/Информация : UTF-8 Plain Text
Продолжительность : 55 м. 52 с.
Битрейт : 2 бит/сек
Count of elements : 30
Размер потока : 1,04 Кбайт (0%)
Заголовок : fors
Язык : Russian
Default : Да
Forced : Нет
Текст #2
Идентификатор : 4
Формат : UTF-8
Идентификатор кодека : S_TEXT/UTF8
Идентификатор кодека/Информация : UTF-8 Plain Text
Продолжительность : 57 м. 35 с.
Битрейт : 77 бит/сек
Count of elements : 621
Размер потока : 32,5 Кбайт (0%)
Язык : Russian
Default : Нет
Forced : Нет

Раздача ведется путем добавления новых серий

Когда раздача ведётся путём добавления новых серий, при каждом добавлении создётся новый торрент. Чтобы начать докачку новой серии, пользователям необходимо сделать следующее:
(1) остановить скачивание,
(2) удалить старый торрент у себя из клиента (старые серии удалять не надо),
(3) скачать новый торрент и запустить его у себя в клиенте вместо старого, при этом указать клиенту путь в старую папку, куда и должно происходить скачивание новых серий.
Ваш клиент при этом должен произвести хеширование (проверку) старой папки (если не производит сам - помогите ему сделать это), и будет докачивать только те серии, которых у вас ещё нет. Старые серии при этом не удаляются, а продолжают раздаваться!
Eсли вы уже удалили старые серии, то предотвратить повторную закачку старых серий можно, отжав галочку в соответствующих местах при запуске нового торрента. По возможности, желательно не удалять старые серии как можно дольше, чтобы релизер не столько продолжал раздавать старые серии, а смог сконцентрироваться на новых.

Скриншоты

AdGuard VPN - бесплатный, надёжный и быстрый VPN
[korsars.pro].t89374.torrent 
Торрент: Зарегистрирован [ 2023-09-01 01:00 ] · 99D13DF4BA3D2906D56A4F785A111E243085C7C7

Скачать .torrent

Размер .torrent файла 18 KB

Статус: проверено
.torrent скачан: 1 раз
Размер: 1.74 GB
Правила

AdGuard VPN - бесплатный, надёжный и быстрый VPN
Похожие темы

Вы не зарегистрированы на нашем сайте. Вам доступна для скачивания только часть контента. Чтобы увидеть весь контент сайта, пожалуйста, зарегистрируйтесь.

Дешевый и быстрый Сидбокс
У Вас отключен VIP статус, поэтому Вам показывается реклама на сайте. Вы можете поддержать наш ресурс и приобрести VIP статус, тем самым отключив показ рекламы на сайте, а ещё VIP пользователи получают 15 инвайтов, которыми можно поделиться с друзьями или знакомыми.
Дешевый и быстрый Сидбокс
AdGuard - Интернет без рекламы и слежки в любом браузере
[Профиль] [ЛС]
Показать сообщения:    
Ответить на тему

Текущее время: 31-Май 02:07

Часовой пояс: UTC + 4



Вы не можете начинать темы
Вы не можете отвечать на сообщения
Вы не можете редактировать свои сообщения
Вы не можете удалять свои сообщения
Вы не можете голосовать в опросах
Вы не можете прикреплять файлы к сообщениям
Вы можете скачивать файлы
Анализ сайта korsars.pro Яндекс.Метрика

Материал для зрителей старше 18 летВсе материалы на сайте получены из свободных источников в сети Интернет и представлены исключительно для личного (некоммерческого) использования лицами старше 18 лет.