Секретное вторжение / Secret Invasion [01x01 из 06] (2023) WEB-DL-HEVC 2160p от NewComers | 4K | HDR | P

Ответить на тему
Статистика раздачи [Обновить пиров]
Размер:  5,05 GB   |    Зарегистрирован:  9 месяцев 25 дней   |    .torrent скачан:  11 раз
Раздают:  251  [  0 KB/s  ]   Качают:  27  [  0 KB/s  ]   Подробная статистика пиров
   
 
Автор Сообщение

4udaki ®

Оффлайн

Медали


Пол: Мужской

Стаж: 9 лет 5 месяцев

Наличие запрета:

Сообщений: 58650

Откуда: korsars.pro

Отдача: 100 Mb/s

Загрузка: 100 Mb/s



AdGuard VPN - бесплатный, надёжный и быстрый VPN

Создавать темы 23-Июн-2023 05:00

[Цитировать]

Информация о фильме
Название: Секретное вторжение
Оригинальное название: Secret Invasion
Год выхода: 2023
Жанр: Боевик, приключения, драма, комикс, супергерой
Режиссер: Али Селим
В ролях: Сэмюэл Л. Джексон, Бен Мендельсон, Коби Смолдерс, Оливия Колман, Эмилия Кларк, Кингсли Бен-Адир, Киллиан Скотт, Кристофер МакДональд, Кармен Эджого, Кристофер Го, Мартин Фриман
О фильме:
Мини сериал будет состоять из шести эпизодов и расскажет о Нике Фьюри после событий «Мстители: Финал» и «Человек-паук: Вдали от дома». Понятно, что это видео адаптация известного комикса Marvel, которая повествует о раскрытии заговора цивилизации Скруллов-оборотней. Скруллы — инопланетная раса, меняющая форму, намерена проникнуть в высшие эшелоны человеческого общества и стать теневыми правителями планеты Земля. Ник Фьюри наконец возвращается на Землю, на этот раз с полной седины бородой и без этой культовой его повязки на глазу. Мы видим, что Нику Фьюри после его долгого отпуска за пределами планеты не очень рады на Земле, а Джеймс Роудс говорит Фьюри, что он самый разыскиваемый человек на планете. К счастью для Фьюри, у него все еще есть союзники в лице Талоса, Марии Хилл и агента Сони Фалсворт. То есть они кажутся союзниками, поскольку неизвестно кто из них на самом деле может быть Скруллами под прикрытием, ожидающими своего часа, чтобы нанести удар. Только Фьюри может встать между радикальными Скруллами и их планами на мировое господство. Он и его союзник Скрулл Талос начинают расследование. Они мчатся, опережая время, чтобы предотвратить неминуемое вторжение Скруллов и спасти человечество от катастрофы.

Страна: США
Студия: Marvel Studios Inc.
Продолжительность: 1x ~ 00:53:00
Перевод: Профессиональный (многоголосый, закадровый) NewComers
Файл
Кодек: HEVC
Качество: WEB-DL-HEVC 2160p
Видео: HEVC HDR10, ~ 12.3 Мбит/с, 3840x2160, 24.000 кадр/с
Аудио 1: Русский / AC-3 / 5.1 / 640 kbs
Аудио 2: Английский / E-AC-3 / 5.1 / 768 kbs
Субтитры: английские, русские
Внимание! Релиз без рекламы

MI

Общее
Уникальный идентификатор : 63757708938342144696698343919959636745 (0x2FF749BFCE8380C78D0F75CED81F7B09)
Полное имя : E:Secret.Invasion.S01.2160p.HDR.NewComersSecret.Invasion.S01E01.2160p.HDR.NewComers.mkv
Формат : Matroska
Версия формата : Version 4
Размер файла : 5,05 Гбайт
Продолжительность : 52 м. 44 с.
Общий поток : 13,7 Мбит/сек
Дата кодирования : UTC 2023-06-22 14:08:30
Программа кодирования : mkvmerge v61.0.0 ('So') 64-bit
Библиотека кодирования : libebml v1.4.2 + libmatroska v1.6.4
Видео
Идентификатор : 1
Формат : HEVC
Формат/Информация : High Efficiency Video Coding
Профиль формата : Main 10@L5@High
HDR format : SMPTE ST 2086, HDR10 compatible
Идентификатор кодека : V_MPEGH/ISO/HEVC
Продолжительность : 52 м. 44 с.
Битрейт : 12,3 Мбит/сек
Ширина : 3 840 пикселей
Высота : 2 160 пикселей
Соотношение сторон : 16:9
Режим частоты кадров : Постоянный
Частота кадров : 24,000 кадра/сек
Цветовое пространство : YUV
Субдискретизация насыщенности : 4:2:0
Битовая глубина : 10 бит
Бит/(Пиксели*Кадры) : 0.062
Размер потока : 4,53 Гбайт (90%)
Default : Да
Forced : Нет
Цветовой диапазон : Limited
Основные цвета : BT.2020
Характеристики трансфера : PQ
Коэффициенты матрицы : BT.2020 non-constant
Mastering display color primaries : BT.2020
Mastering display luminance : min: 0.0000 cd/m2, max: 1000 cd/m2
Аудио #1
Идентификатор : 2
Формат : AC-3
Формат/Информация : Audio Coding 3
Коммерческое название : Dolby Digital
Идентификатор кодека : A_AC3
Продолжительность : 52 м. 44 с.
Вид битрейта : Постоянный
Битрейт : 640 Кбит/сек
Каналы : 6 каналов
Channel layout : L R C LFE Ls Rs
Частота : 48,0 КГц
Частота кадров : 31,250 кадров/сек (1536 SPF)
Метод сжатия : С потерями
Размер потока : 241 Мбайт (5%)
Заголовок : Newcomers
Язык : Russian
Service kind : Complete Main
Default : Да
Forced : Нет
Аудио #2
Идентификатор : 3
Формат : E-AC-3 JOC
Формат/Информация : Enhanced AC-3 with Joint Object Coding
Коммерческое название : Dolby Digital Plus with Dolby Atmos
Идентификатор кодека : A_EAC3
Продолжительность : 52 м. 44 с.
Вид битрейта : Постоянный
Битрейт : 768 Кбит/сек
Каналы : 6 каналов
Channel layout : L R C LFE Ls Rs
Частота : 48,0 КГц
Частота кадров : 31,250 кадров/сек (1536 SPF)
Метод сжатия : С потерями
Размер потока : 290 Мбайт (6%)
Язык : English
Service kind : Complete Main
Default : Да
Forced : Нет
Complexity index : 16
Number of dynamic objects : 15
Bed channel count : 1 канал
Bed channel configuration : LFE
Текст #1
Идентификатор : 4
Формат : UTF-8
Идентификатор кодека : S_TEXT/UTF8
Идентификатор кодека/Информация : UTF-8 Plain Text
Продолжительность : 49 м. 21 с.
Битрейт : 67 бит/сек
Частота кадров : 0,162 кадр/сек
Count of elements : 479
Размер потока : 24,2 Кбайт (0%)
Заголовок : Полные
Язык : Russian
Default : Да
Forced : Нет
Текст #2
Идентификатор : 5
Формат : UTF-8
Идентификатор кодека : S_TEXT/UTF8
Идентификатор кодека/Информация : UTF-8 Plain Text
Продолжительность : 49 м. 22 с.
Битрейт : 48 бит/сек
Частота кадров : 0,183 кадр/сек
Count of elements : 541
Размер потока : 17,4 Кбайт (0%)
Заголовок : English (SDH)
Язык : English
Default : Нет
Forced : Нет

Скриншоты

Релиз от:
AdGuard VPN - бесплатный, надёжный и быстрый VPN
[korsars.pro].t86048.torrent 
Торрент: Зарегистрирован [ 2023-06-23 05:00 ] · 6F47A047310AA63B4DA10185C440D73F40716650

Скачать .torrent

Размер .torrent файла 51 KB

Статус: проверено
.torrent скачан: 11 раз
Размер: 5,05 GB
Правила
Тимур(23-Июн-23)
AdGuard VPN - бесплатный, надёжный и быстрый VPN
Похожие темы

Вы не зарегистрированы на нашем сайте. Вам доступна для скачивания только часть контента. Чтобы увидеть весь контент сайта, пожалуйста, зарегистрируйтесь.

Дешевый и быстрый Сидбокс
У Вас отключен VIP статус, поэтому Вам показывается реклама на сайте. Вы можете поддержать наш ресурс и приобрести VIP статус, тем самым отключив показ рекламы на сайте, а ещё VIP пользователи получают 15 инвайтов, которыми можно поделиться с друзьями или знакомыми.
Дешевый и быстрый Сидбокс
[Профиль] [ЛС]
Показать сообщения:    
Ответить на тему

Текущее время: 18-Апр 17:06

Часовой пояс: UTC + 4



Вы не можете начинать темы
Вы не можете отвечать на сообщения
Вы не можете редактировать свои сообщения
Вы не можете удалять свои сообщения
Вы не можете голосовать в опросах
Вы не можете прикреплять файлы к сообщениям
Вы можете скачивать файлы
Анализ сайта korsars.pro Яндекс.Метрика

Материал для зрителей старше 18 летВсе материалы на сайте получены из свободных источников в сети Интернет и представлены исключительно для личного (некоммерческого) использования лицами старше 18 лет.