Американец китайского происхождения / American Born Chinese [S01] (2023) WEB-DL 1080p от KORSARS | NewStudio

Ответить на тему
Статистика раздачи [Обновить пиров]
Размер:  14,59 GB   |    Зарегистрирован:  10 месяцев 13 дней   |    .torrent скачан:  5 раз
Раздают:  94  [  0 KB/s  ]   Качают:  54  [  0 KB/s  ]   Подробная статистика пиров
   
 
Автор Сообщение

4udaki ®

Оффлайн

Медали


Пол: Мужской

Стаж: 9 лет 5 месяцев

Наличие запрета:

Сообщений: 58650

Откуда: korsars.pro

Отдача: 100 Mb/s

Загрузка: 100 Mb/s



AdGuard VPN - бесплатный, надёжный и быстрый VPN

Создавать темы 04-Июн-2023 20:35

[Цитировать]

Американец китайского происхождения / American Born Chinese-Год выпуска: 2023
Страна:
США
Жанр: боевик, комедия, фэнтези
Продолжительность: ~ 00:40:00 (серия)
Перевод: Профессиональный (многоголосый, закадровый) | NewStudio
Режиссёр: Дестин Дэниел Креттон, Люси Лью, Эрин О’Мэлли, Чжан Пэн-Рейтинг:
-Релиз от: -Описание:
Цзынь Ван — обычный подросток, который пытается выжить в старшей школе. Тот факт, что круги общения в семье и за пределами дома сильно отличаются, приводит Вана в замешательство и мешает спокойно жить. Все становится только хуже, когда в классе появляется новая ученица. Миры сталкиваются, и Цзынь оказывается в эпицентре междоусобной войны мифических китайских богов.-Качество: WEB-DL 1080p
Формат: MKV (MPEG-4 AVC)
Видео: 1920x1080, ~7 165 kb/s, 23.976 FPS, 8 bits
Аудио RUS: AC-3, ~ 448 kb/s, 6 channels (L R C LFE Ls Rs), 48.0 kHz
Субтитры: отсутствуют-

MediaInfo

General
Unique ID                   : 296919961271671746745652562859480748848 (0xDF60B456D4D2B085C4F82CF6503A9330)
Complete name               : [KORSARS]_American.Born Chinese.[S01E01].WEB-DL.1080p.NewStudio.mkv
Format                      : Matroska
Format version              : Version 4
File size                   : 2.32 GiB
Duration                    : 43 min 16 s
Overall bit rate mode       : Variable
Overall bit rate            : 7 673 kb/s
Frame rate                  : 23.976 FPS
Movie name                  : [KORSARS]_American.Born Chinese.[S01E01].WEB-DL.1080p.NewStudio
Encoded date                : 2023-06-04 15:53:05 UTC
Writing application         : mkvmerge v76.0 ('Celebration') 64-bit
Writing library             : libebml v1.4.4 + libmatroska v1.7.1
Video
ID                          : 1
Format                      : AVC
Format/Info                 : Advanced Video Codec
Format profile              : High@L4
Format settings             : CABAC / 4 Ref Frames
Format settings, CABAC      : Yes
Format settings, Reference  : 4 frames
Codec ID                    : V_MPEG4/ISO/AVC
Duration                    : 43 min 16 s
Bit rate mode               : Variable
Bit rate                    : 7 165 kb/s
Maximum bit rate            : 12.7 Mb/s
Width                       : 1 920 pixels
Height                      : 1 080 pixels
Display aspect ratio        : 16:9
Frame rate mode             : Constant
Frame rate                  : 23.976 (24000/1001) FPS
Color space                 : YUV
Chroma subsampling          : 4:2:0
Bit depth                   : 8 bits
Scan type                   : Progressive
Bits/(Pixel*Frame)          : 0.144
Stream size                 : 2.17 GiB (93%)
Title                       : [KORSARS]_American.Born Chinese.[S01E01].WEB-DL.1080p.NewStudio
Default                     : Yes
Forced                      : No
Color range                 : Limited
Color primaries             : BT.709
Transfer characteristics    : BT.709
Matrix coefficients         : BT.709
Audio
ID                          : 2
Format                      : AC-3
Format/Info                 : Audio Coding 3
Commercial name             : Dolby Digital
Codec ID                    : A_AC3
Duration                    : 43 min 16 s
Bit rate mode               : Constant
Bit rate                    : 448 kb/s
Channel(s)                  : 6 channels
Channel layout              : L R C LFE Ls Rs
Sampling rate               : 48.0 kHz
Frame rate                  : 31.250 FPS (1536 SPF)
Compression mode            : Lossy
Stream size                 : 139 MiB (6%)
Title                       : [KORSARS]_American.Born Chinese.[S01E01].WEB-DL.1080p.NewStudio
Language                    : Russian
Service kind                : Complete Main
Default                     : Yes
Forced                      : Yes
--Приятного просмотра!-
AdGuard VPN - бесплатный, надёжный и быстрый VPN
[korsars.pro].t85019.torrent 
Торрент: Зарегистрирован [ 2023-06-04 20:35 ] · E80CB7425115D72C81B86F930025AB6F8C7E985F

Скачать .torrent

Размер .torrent файла 147 KB

Статус: проверено
.torrent скачан: 5 раз
Размер: 14,59 GB
Правила
AdGuard VPN - бесплатный, надёжный и быстрый VPN
Похожие темы

Вы не зарегистрированы на нашем сайте. Вам доступна для скачивания только часть контента. Чтобы увидеть весь контент сайта, пожалуйста, зарегистрируйтесь.

Дешевый и быстрый Сидбокс
У Вас отключен VIP статус, поэтому Вам показывается реклама на сайте. Вы можете поддержать наш ресурс и приобрести VIP статус, тем самым отключив показ рекламы на сайте, а ещё VIP пользователи получают 15 инвайтов, которыми можно поделиться с друзьями или знакомыми.
Дешевый и быстрый Сидбокс
[Профиль] [ЛС]
Показать сообщения:    
Ответить на тему

Текущее время: 18-Апр 18:24

Часовой пояс: UTC + 4



Вы не можете начинать темы
Вы не можете отвечать на сообщения
Вы не можете редактировать свои сообщения
Вы не можете удалять свои сообщения
Вы не можете голосовать в опросах
Вы не можете прикреплять файлы к сообщениям
Вы можете скачивать файлы
Анализ сайта korsars.pro Яндекс.Метрика

Материал для зрителей старше 18 летВсе материалы на сайте получены из свободных источников в сети Интернет и представлены исключительно для личного (некоммерческого) использования лицами старше 18 лет.