Мандалорец / The Mandalorian [S03] (2023) WEB-DL-HEVC 2160p от Voyager | HDR | 4K | D | Condor Films

Ответить на тему
Статистика раздачи [Обновить пиров]
Размер:  33,01 GB   |    Зарегистрирован:  11 месяцев 25 дней   |    .torrent скачан:  10 раз
Раздают:  48  [  0 KB/s  ]   Качают:  113  [  0 KB/s  ]   Подробная статистика пиров
   
 
Автор Сообщение

4udaki ®

Оффлайн

Медали


Пол: Мужской

Стаж: 9 лет 5 месяцев

Наличие запрета:

Сообщений: 58650

Откуда: korsars.pro

Отдача: 100 Mb/s

Загрузка: 100 Mb/s



AdGuard VPN - бесплатный, надёжный и быстрый VPN

Создавать темы 23-Апр-2023 01:00

[Цитировать]


Информация о фильме
Название: Мандалорец
Оригинальное название: The Mandalorian
Год выхода: 2023
Жанр: Фантастика, фэнтези, боевик, приключения
Режиссер: Рик Фамуйива, Дэйв Филони, Брайс Даллас Ховард
В ролях: Педро Паскаль, Кайл Пацек, Брендан Уэйн, Бернард Баллен, Александра Гилман, Луис Ричард Гомес, Джамал Антар, Тейт Флетчер, Тони Табоада, Омид Абтахи и др.
О фильме:
Одинокий мандалорец-наёмник живёт на краю обитаемой галактики, куда не дотягивается закон Новой Республики. Представитель некогда могучей расы благородных воинов теперь вынужден влачить жалкое существование среди отбросов общества.
Страна: США
Студия: Студия-изготовитель, если известна
Продолжительность: ~00:35:00 - 1 серия
Перевод: Дублированный(неофициальный) | Condor Films
Оригинал
Файл
Кодек: HEVC
Качество: WEB-DL-HEVC 2160p
Видео: 3840x2160, 24,000 кадра/сек, ~12,8 Мбит/сек, 10 бит
Звук:
Rus: E-AC-3, 768kbps, 5.1, 48kHz.
Eng: E-AC-3 JOC, 768kbps, 5.1, 48kHz.
Семпл

MediaInfo

Общее
Уникальный идентификатор : 17976016160958441177747593711356444791 (0xD860E061894BA71EDDD34BDBD7B8077)
Полное имя : E:TorrentsThe.Mandalorian.S03.CondorFilms.2160pThe.Mandalorian.S03E01.CondorFilms.2160p.mkv
Формат : Matroska
Версия формата : Version 4
Размер файла : 3,55 Гбайт
Продолжительность : 35 м. 17 с.
Общий поток : 14,4 Мбит/сек
Дата кодирования : UTC 2023-04-22 07:57:31
Программа кодирования : mkvmerge v75.0.0 ('Goliath') 64-bit
Библиотека кодирования : libebml v1.4.4 + libmatroska v1.7.1
Видео
Идентификатор : 1
Формат : HEVC
Формат/Информация : High Efficiency Video Coding
Профиль формата : Main 10@L5@High
HDR format : Dolby Vision, Version 1.0, dvhe.08.06, BL+RPU, HDR10 compatible / SMPTE ST 2086, HDR10 compatible
Идентификатор кодека : V_MPEGH/ISO/HEVC
Продолжительность : 35 м. 16 с.
Битрейт : 12,8 Мбит/сек
Ширина : 3 840 пикселей
Высота : 2 160 пикселей
Соотношение сторон : 16:9
Режим частоты кадров : Постоянный
Частота кадров : 24,000 кадра/сек
Цветовое пространство : YUV
Субдискретизация насыщенности : 4:2:0
Битовая глубина : 10 бит
Бит/(Пиксели*Кадры) : 0.065
Размер потока : 3,17 Гбайт (89%)
Язык : English
Default : Да
Forced : Нет
Цветовой диапазон : Limited
Основные цвета : BT.2020
Характеристики трансфера : PQ
Коэффициенты матрицы : BT.2020 non-constant
Mastering display color primaries : Display P3
Mastering display luminance : min: 0.0000 cd/m2, max: 1000 cd/m2
Аудио #1
Идентификатор : 2
Формат : E-AC-3
Формат/Информация : Enhanced AC-3
Коммерческое название : Dolby Digital Plus
Идентификатор кодека : A_EAC3
Продолжительность : 35 м. 17 с.
Вид битрейта : Постоянный
Битрейт : 768 Кбит/сек
Каналы : 6 каналов
Channel layout : L R C LFE Ls Rs
Частота : 48,0 КГц
Частота кадров : 31,250 кадров/сек (1536 SPF)
Метод сжатия : С потерями
Размер потока : 194 Мбайт (5%)
Язык : Russian
Service kind : Complete Main
Default : Да
Forced : Нет
Аудио #2
Идентификатор : 3
Формат : E-AC-3 JOC
Формат/Информация : Enhanced AC-3 with Joint Object Coding
Коммерческое название : Dolby Digital Plus with Dolby Atmos
Идентификатор кодека : A_EAC3
Продолжительность : 35 м. 16 с.
Вид битрейта : Постоянный
Битрейт : 768 Кбит/сек
Каналы : 6 каналов
Channel layout : L R C LFE Ls Rs
Частота : 48,0 КГц
Частота кадров : 31,250 кадров/сек (1536 SPF)
Метод сжатия : С потерями
Размер потока : 194 Мбайт (5%)
Язык : English
Service kind : Complete Main
Default : Нет
Forced : Нет
Complexity index : 16
Number of dynamic objects : 15
Bed channel count : 1 канал
Bed channel configuration : LFE

Скриншоты

Релиз от: Voyager. За озвучку спасибо Condor Films.
AdGuard VPN - бесплатный, надёжный и быстрый VPN
[korsars.pro].t82569.torrent 
Торрент: Зарегистрирован [ 2023-04-23 01:00 ] · BA39C918C264EEF07D5B4ADD9F40CAD315D95DBA

Скачать .torrent

Размер .torrent файла 84 KB

Статус: проверено
.torrent скачан: 10 раз
Размер: 33,01 GB
Правила
AdGuard VPN - бесплатный, надёжный и быстрый VPN
Похожие темы

Вы не зарегистрированы на нашем сайте. Вам доступна для скачивания только часть контента. Чтобы увидеть весь контент сайта, пожалуйста, зарегистрируйтесь.

Дешевый и быстрый Сидбокс
У Вас отключен VIP статус, поэтому Вам показывается реклама на сайте. Вы можете поддержать наш ресурс и приобрести VIP статус, тем самым отключив показ рекламы на сайте, а ещё VIP пользователи получают 15 инвайтов, которыми можно поделиться с друзьями или знакомыми.
Дешевый и быстрый Сидбокс
[Профиль] [ЛС]
Показать сообщения:    
Ответить на тему

Текущее время: 18-Апр 17:16

Часовой пояс: UTC + 4



Вы не можете начинать темы
Вы не можете отвечать на сообщения
Вы не можете редактировать свои сообщения
Вы не можете удалять свои сообщения
Вы не можете голосовать в опросах
Вы не можете прикреплять файлы к сообщениям
Вы можете скачивать файлы
Анализ сайта korsars.pro Яндекс.Метрика

Материал для зрителей старше 18 летВсе материалы на сайте получены из свободных источников в сети Интернет и представлены исключительно для личного (некоммерческого) использования лицами старше 18 лет.