Андор / Andor [01x01-03 из 12] (2022) WEB-DL-HEVC 2160p | 4K | Dolby Vision TV | NewComers, HDRezka Studio

Ответить на тему
Статистика раздачи [Обновить пиров]
Размер:  13,83 GB   |    Зарегистрирован:  1 год 6 месяцев   |    .torrent скачан:  2 раза
Раздают:  214  [  0 KB/s  ]   Качают:  124  [  0 KB/s  ]   Подробная статистика пиров
   
 
Автор Сообщение

4udaki ®

Оффлайн

Медали


Пол: Мужской

Стаж: 9 лет 5 месяцев

Наличие запрета:

Сообщений: 58650

Откуда: korsars.pro

Отдача: 100 Mb/s

Загрузка: 100 Mb/s



AdGuard VPN - бесплатный, надёжный и быстрый VPN

Создавать темы 23-Сен-2022 01:00

[Цитировать]



Информация о фильме
Название: Андор
Оригинальное название: Andor
Год выхода: 2022
Жанр: Фантастика, боевик, триллер, драма, приключения
Режиссер: Бенджамин Карон, Тоби Хэйнс, Сюзанна Уайт
В ролях: Диего Луна, Женевьев О`Рейли, Алекс Фернс, Уилф Сколдинг, Нуф Макьюэн, Адриа Архона, Клеменс Шик, Энтон Саундерс, Дениз Гоф, Александр Боуман
О фильме:
Действия сериала разворачиваются за пять лет до событий, показанных в фильме «Изгой-Один: Звёздные войны. Истории». Галактическая империя властвует во Вселенной, её влияние и могущество с каждым днём только возрастает, что серьезно угрожает мировому порядку. Чтобы дать неприятелям отпор, повстанцы формируют Альянс галактического сопротивления. Планета Крейт — идеальное место для размещения главного лагеря повстанцев. Она достаточно удалена от планет, попавших под влияние Империи, но не до конца изучена, чтобы заняться подготовкой спецоперации по срыву планов приспешников Темной стороны. Именно здесь обустраивается новоприбывшая часть представителей Альянса. Одним из главных членов сопротивления является Кассиан Андор — талантливый и успешный пилот, опытный офицер разведки, способный незаметно пройти под самым носом у вражеских шпионов. Сведения, которые ему необходимо добыть, могут иметь колоссальное значение для подготовки миссии и могут стать решающим фактором в победе над врагом.

Страна: США
Студия: Lucasfilm, Disney+
Продолжительность: 12 x ~ 00:39:00
Перевод: Профессиональный многоголосый
Файл
Формат: MP4
Кодек: H.265
Качество: WEB-DL-HEVC 2160p | 4K | Dolby Vision TV
Видео: HEVC, Dolby Vision Profile 5, ~15,5 Mбит/с, 3840x2160, 24,000 кадр/с
Звук:
Аудио #1 Русский: AC3, 48.0 kHz, 5.1 ch, 448 Kbps [MVO, NewComers]
Аудио #2 Русский: AC3, 48.0 kHz, 5.1 ch, 448 Kbps [MVO, HDRezka Studio]
Аудио #3 Украинский: AC3, 48.0 kHz, 5.1 ch, 384 Kbps [MVO, HDRezka Studio] серии 1-2
Аудио #4 English: EAC3+Atmos, 48.0 kHz, 5.1 ch, 768 Kbps [Original]
Субтитры: русские(forced, полные(Где тексты, Лебовски?)), украинские(forced), английские(full, SDH)
Дополнительная информация:
Релиз в MP4 в 5-м профиле Dolby Vision для воспроизведении на устройствах с поддержкой DV. Протестировано на тв-боксах Nvidia Shield 2019, Zidoo Z9X, Amazon FireTV Stick 4k / MAX, TiVo Stream 4K, Ugoos AM6+ и многих других, а также на встроенных плеерах телевизоров LG, Sony, Phillips и Panasonic.
На устройствах без поддержки Dolby Vision проигрываться не будет(или будет, но с искаженными цветами), так как в видеоряде отсутствует HDR слой

Mediainfo

Общее
Полное имя : T:RELEASESAndorAndor.S01.2160p.DSNP.WEB-DL.DDP5.1.Atmos.DoVi.by.DVTAndor.S01E01.2160p.DSNP.WEB-DL.DDP5.1.Atmos.DoVi.by.DVT.mp4
Формат : MPEG-4
Профиль формата : Base Media
Идентификатор кодека : isom (isom/dby1/iso2/mp41)
Размер файла : 4,70 Гбайт
Продолжительность : 39 м. 11 с.
Режим общего битрейта : Переменный
Общий поток : 17,2 Мбит/сек
Название фильма : Andor S01E01 (2022) - Release by Dolby Vision Torrents
Дата пометки : UTC 2022-09-22 09:25:03
Программа кодирования : Lavf59.16.100
Обложка : Yes
Видео
Идентификатор : 1
Формат : HEVC
Формат/Информация : High Efficiency Video Coding
Профиль формата : Main 10@L5@High
HDR format : Dolby Vision, Version 1.0, dvhe.05.06, BL+RPU
Идентификатор кодека : dvhe
Идентификатор кодека/Информация : High Efficiency Video Coding with Dolby Vision
Продолжительность : 39 м. 10 с.
Битрейт : 15,1 Мбит/сек
Ширина : 3 840 пикселей
Высота : 2 160 пикселей
Соотношение сторон : 16:9
Режим частоты кадров : Постоянный
Частота кадров : 24,000 кадра/сек
Цветовое пространство : YUV
Субдискретизация насыщенности : 4:2:0
Битовая глубина : 10 бит
Бит/(Пиксели*Кадры) : 0.076
Размер потока : 4,13 Гбайт (88%)
Заголовок : Andor S01E01 (2022)
Язык : English
Дата пометки : UTC 2022-09-22 09:25:03
Цветовой диапазон : Full
Codec configuration box : hvcC+dvcC
Аудио #1
Идентификатор : 3
Формат : AC-3
Формат/Информация : Audio Coding 3
Коммерческое название : Dolby Digital
Идентификатор кодека : ac-3
Продолжительность : 39 м. 11 с.
Вид битрейта : Постоянный
Битрейт : 448 Кбит/сек
Каналы : 6 каналов
Channel layout : L R C LFE Ls Rs
Частота : 48,0 КГц
Частота кадров : 31,250 кадров/сек (1536 SPF)
Метод сжатия : С потерями
Размер потока : 126 Мбайт (3%)
Заголовок : MVO, NewComers
Язык : Russian
Service kind : Complete Main
Default : Да
Alternate group : 1
Дата пометки : UTC 2022-09-22 09:25:03
Аудио #2
Идентификатор : 4
Формат : AC-3
Формат/Информация : Audio Coding 3
Коммерческое название : Dolby Digital
Идентификатор кодека : ac-3
Продолжительность : 39 м. 10 с.
Вид битрейта : Постоянный
Битрейт : 448 Кбит/сек
Каналы : 6 каналов
Channel layout : L R C LFE Ls Rs
Частота : 48,0 КГц
Частота кадров : 31,250 кадров/сек (1536 SPF)
Метод сжатия : С потерями
Размер потока : 126 Мбайт (3%)
Заголовок : MVO, HDRezka Studio
Язык : Russian
Service kind : Complete Main
Default : Нет
Alternate group : 1
Дата пометки : UTC 2022-09-22 09:25:03
Аудио #3
Идентификатор : 5
Формат : AC-3
Формат/Информация : Audio Coding 3
Коммерческое название : Dolby Digital
Идентификатор кодека : ac-3
Продолжительность : 39 м. 11 с.
Вид битрейта : Постоянный
Битрейт : 384 Кбит/сек
Каналы : 6 каналов
Channel layout : L R C LFE Ls Rs
Частота : 48,0 КГц
Частота кадров : 31,250 кадров/сек (1536 SPF)
Метод сжатия : С потерями
Размер потока : 108 Мбайт (2%)
Заголовок : MVO, HDRezka Studio
Язык : Ukrainian
Service kind : Complete Main
Default : Нет
Alternate group : 1
Дата пометки : UTC 2022-09-22 09:25:03
Аудио #4
Идентификатор : 6
Формат : E-AC-3 JOC
Формат/Информация : Enhanced AC-3 with Joint Object Coding
Коммерческое название : Dolby Digital Plus with Dolby Atmos
Идентификатор кодека : ec-3
Продолжительность : 39 м. 10 с.
Вид битрейта : Постоянный
Битрейт : 768 Кбит/сек
Каналы : 6 каналов
Channel layout : L R C LFE Ls Rs
Частота : 48,0 КГц
Частота кадров : 31,250 кадров/сек (1536 SPF)
Метод сжатия : С потерями
Размер потока : 215 Мбайт (4%)
Заголовок : Original
Язык : English
Service kind : Complete Main
Default : Нет
Alternate group : 1
Дата пометки : UTC 2022-09-22 09:25:03
Complexity index : Not present / 16
Number of dynamic objects : 15
Bed channel count : 1 канал
Bed channel configuration : LFE
Текст #1
Идентификатор : 7
Формат : Timed Text
Режим смешивания : sbtl
Идентификатор кодека : tx3g
Продолжительность : 35 м. 53 с.
Вид битрейта : Переменный
Битрейт : 4 бит/сек
Размер потока : 1,09 Кбайт (0%)
Заголовок : Forced
Язык : Russian
Default : Да
Forced : Нет
Alternate group : 3
Текст #2
Идентификатор : 8
Формат : Timed Text
Режим смешивания : sbtl
Идентификатор кодека : tx3g
Продолжительность : 35 м. 51 с.
Вид битрейта : Переменный
Битрейт : 97 бит/сек
Размер потока : 25,4 Кбайт (0%)
Заголовок : Где тексты, Лебовски?
Язык : Russian
Default : Нет
Forced : Нет
Alternate group : 3
Текст #3
Идентификатор : 9
Формат : Timed Text
Режим смешивания : sbtl
Идентификатор кодека : tx3g
Продолжительность : 17 м. 20 с.
Вид битрейта : Переменный
Битрейт : 3 бит/сек
Размер потока : 339 байт (0%)
Заголовок : Forced
Язык : Ukrainian
Default : Нет
Forced : Нет
Alternate group : 3
Текст #4
Идентификатор : 10
Формат : Timed Text
Режим смешивания : sbtl
Идентификатор кодека : tx3g
Продолжительность : 35 м. 17 с.
Вид битрейта : Переменный
Битрейт : 61 бит/сек
Размер потока : 15,8 Кбайт (0%)
Заголовок : Full
Язык : English
Default : Нет
Forced : Нет
Alternate group : 3
Текст #5
Идентификатор : 11
Формат : Timed Text
Режим смешивания : sbtl
Идентификатор кодека : tx3g
Продолжительность : 35 м. 50 с.
Вид битрейта : Переменный
Битрейт : 69 бит/сек
Размер потока : 18,0 Кбайт (0%)
Заголовок : SDH
Язык : English
Default : Нет
Forced : Нет
Alternate group : 3

Скриншоты

Скриншоты получены с помощью специальной сборки плеера MPV с поддержкой Dolby Vision. Если ваше устройство не умеет проигрывать этот формат то изображение будет в сиренево-зелёной цветовой гамме
Релиз от: Dolby Vision Torrents
AdGuard VPN - бесплатный, надёжный и быстрый VPN
[korsars.pro].t69156.torrent 
Торрент: Зарегистрирован [ 2022-09-23 01:00 ] · 654BB949B39C23E842BE4E53A16A95066BCA6F9C

Скачать .torrent

Размер .torrent файла 139 KB

Статус: проверено
.torrent скачан: 2 раз
Размер: 13,83 GB
Правила
Тимур(23-Сен-22)
AdGuard VPN - бесплатный, надёжный и быстрый VPN
Похожие темы

Вы не зарегистрированы на нашем сайте. Вам доступна для скачивания только часть контента. Чтобы увидеть весь контент сайта, пожалуйста, зарегистрируйтесь.

Дешевый и быстрый Сидбокс
У Вас отключен VIP статус, поэтому Вам показывается реклама на сайте. Вы можете поддержать наш ресурс и приобрести VIP статус, тем самым отключив показ рекламы на сайте, а ещё VIP пользователи получают 15 инвайтов, которыми можно поделиться с друзьями или знакомыми.
Дешевый и быстрый Сидбокс
[Профиль] [ЛС]
Показать сообщения:    
Ответить на тему

Текущее время: 18-Апр 16:53

Часовой пояс: UTC + 4



Вы не можете начинать темы
Вы не можете отвечать на сообщения
Вы не можете редактировать свои сообщения
Вы не можете удалять свои сообщения
Вы не можете голосовать в опросах
Вы не можете прикреплять файлы к сообщениям
Вы можете скачивать файлы
Анализ сайта korsars.pro Яндекс.Метрика

Материал для зрителей старше 18 летВсе материалы на сайте получены из свободных источников в сети Интернет и представлены исключительно для личного (некоммерческого) использования лицами старше 18 лет.