Оби-Ван Кеноби / Obi-Wan Kenobi [S01] (2022) WEB-DL 1080p | AlexFilm

Ответить на тему
Статистика раздачи [Обновить пиров]
Размер:  14,78 GB   |    Зарегистрирован:  1 год 8 месяцев   |    .torrent скачан:  9 раз
Раздают:  174  [  0 KB/s  ]   Качают:  84  [  0 KB/s  ]   Подробная статистика пиров
   
 
Автор Сообщение

4udaki ®

Оффлайн

Медали


Пол: Мужской

Стаж: 9 лет 5 месяцев

Наличие запрета:

Сообщений: 58650

Откуда: korsars.pro

Отдача: 100 Mb/s

Загрузка: 100 Mb/s



AdGuard VPN - бесплатный, надёжный и быстрый VPN

Создавать темы 22-Июл-2022 13:00

[Цитировать]

Информация о сериале
Название: Оби-Ван Кеноби
Оригинальное название: Obi-Wan Kenobi
Год выхода: 2022
Жанр: Фантастика, боевик, приключения
Режиссёр: Дебора Чоу
В ролях: Хейден Кристенсен, Руперт Френд, Эван МакГрегор, Джоэл Эдгертон, Майя Эрскин, Кумэйл Нанджиани, Моусес Ингрэм, Бонни Пессе, Бенни Сэфди, О`Ши Джексон мл. и др.
Описание:
Джедай Оби-Ван Кеноби присматривает за юным Люком Скайуокером и прячется от охотников Империи во время изгнания на Татуине.

Страна: США
Студия: Disney+
Продолжительность: ~00:45:00
Перевод: Профессиональный (многоголосый закадровый) | AlexFilm
Файл
Кодек: AVC
Качество: WEB-DL 1080p
Видео: 1920x1080 (16:9), 24 fps, ~6500 Kbps
Аудио №1: AC3, 48,0 kHz, 6 ch, 384 kbps | AlexFilm
Аудио №2: AC3, 48,0 kHz, 6 ch, 640 kbps | Original
Аудио №3: EAC3 JOC, 48,0 kHz, 6 ch, 768 kbps | Original
Субтитры: Русские (Full |«Где тексты, Лебовски?»|, английские (Full, SDH)
Реклама: Отсутствует
Исходник: Obi-Wan.Kenobi.S01.1080p.DSNP.WEB-DL.DDP5.1.x264-NTb

Список серий:

01. Part I / Часть I
02. Part II / Часть II
03. Part III / Часть III
04. Part IV / Часть IV
05. Part V / Часть V
06. Part VI / Часть VI

MediaInfo:

Complete name : D:Obi-Wan_Kenobi_(s01)_AlexFilm_1080pObi-Wan.Kenobi.2022.S01E01.Part.I.1080p.DSNP.WEB-DL.DDP5.1.x264-NTb_EniaHD.mkv
Format : Matroska
Format version : Version 4
File size : 3.11 GiB
Duration : 52 min 28 s
Overall bit rate mode : Variable
Overall bit rate : 8 474 kb/s
Encoded date : UTC 2022-05-28 11:31:13
Writing application : mkvmerge v58.0.0 ('Supper's Ready') 64-bit
Writing library : libebml v1.4.2 + libmatroska v1.6.4
Video
ID : 1
Format : AVC
Format/Info : Advanced Video Codec
Format profile : High@L4
Format settings : CABAC / 4 Ref Frames
Format settings, CABAC : Yes
Format settings, Reference : 4 frames
Codec ID : V_MPEG4/ISO/AVC
Duration : 52 min 28 s
Bit rate mode : Variable
Bit rate : 6 679 kb/s
Maximum bit rate : 12.7 Mb/s
Width : 1 920 pixels
Height : 1 080 pixels
Display aspect ratio : 16:9
Frame rate mode : Constant
Frame rate : 24.000 FPS
Color space : YUV
Chroma subsampling : 4:2:0
Bit depth : 8 bits
Scan type : Progressive
Bits/(Pixel*Frame) : 0.134
Stream size : 2.45 GiB (79%)
Title : Release by EniaHD
Default : Yes
Forced : No
Color range : Limited
Color primaries : BT.709
Transfer characteristics : BT.709
Matrix coefficients : BT.709
Audio #1
ID : 2
Format : AC-3
Format/Info : Audio Coding 3
Commercial name : Dolby Digital
Codec ID : A_AC3
Duration : 52 min 28 s
Bit rate mode : Constant
Bit rate : 384 kb/s
Channel(s) : 6 channels
Channel layout : L R C LFE Ls Rs
Sampling rate : 48.0 kHz
Frame rate : 31.250 FPS (1536 SPF)
Compression mode : Lossy
Stream size : 144 MiB (5%)
Title : AlexFilm
Language : Russian
Service kind : Complete Main
Default : Yes
Forced : No
Audio #2
ID : 3
Format : AC-3
Format/Info : Audio Coding 3
Commercial name : Dolby Digital
Codec ID : A_AC3
Duration : 52 min 28 s
Bit rate mode : Constant
Bit rate : 640 kb/s
Channel(s) : 6 channels
Channel layout : L R C LFE Ls Rs
Sampling rate : 48.0 kHz
Frame rate : 31.250 FPS (1536 SPF)
Compression mode : Lossy
Stream size : 240 MiB (8%)
Language : English
Service kind : Complete Main
Default : No
Forced : No
Audio #3
ID : 4
Format : E-AC-3 JOC
Format/Info : Enhanced AC-3 with Joint Object Coding
Commercial name : Dolby Digital Plus with Dolby Atmos
Codec ID : A_EAC3
Duration : 52 min 28 s
Bit rate mode : Constant
Bit rate : 768 kb/s
Channel(s) : 6 channels
Channel layout : L R C LFE Ls Rs
Sampling rate : 48.0 kHz
Frame rate : 31.250 FPS (1536 SPF)
Compression mode : Lossy
Stream size : 288 MiB (9%)
Language : English
Service kind : Complete Main
Default : No
Forced : No
Complexity index : 16
Number of dynamic objects : 15
Bed channel count : 1 channel
Bed channel configuration : LFE
Text #1
ID : 5
Format : UTF-8
Codec ID : S_TEXT/UTF8
Codec ID/Info : UTF-8 Plain Text
Duration : 47 min 55 s
Bit rate : 63 b/s
Count of elements : 500
Stream size : 22.3 KiB (0%)
Title : Full |Где тексты, Лебовски?|
Language : Russian
Default : No
Forced : No
Text #2
ID : 6
Format : UTF-8
Codec ID : S_TEXT/UTF8
Codec ID/Info : UTF-8 Plain Text
Duration : 47 min 44 s
Bit rate : 36 b/s
Count of elements : 476
Stream size : 12.7 KiB (0%)
Title : Full
Language : English
Default : No
Forced : No
Text #3
ID : 7
Format : UTF-8
Codec ID : S_TEXT/UTF8
Codec ID/Info : UTF-8 Plain Text
Duration : 48 min 23 s
Bit rate : 45 b/s
Count of elements : 619
Stream size : 16.1 KiB (0%)
Title : SDH
Language : English
Default : No
Forced : No
Menu
00:00:04.292 : Recap
00:04:06.417 : End of Recap
00:52:30.167 : Credits
-
AdGuard VPN - бесплатный, надёжный и быстрый VPN
[korsars.pro].t62004.torrent 
Торрент: Зарегистрирован [ 2022-07-22 13:00 ] · 029F1F7FC2F667C8F24BDD6F6B225674719F9D11

Скачать .torrent

Размер .torrent файла 20 KB

Статус: проверено
.torrent скачан: 9 раз
Размер: 14,78 GB
Правила
AdGuard VPN - бесплатный, надёжный и быстрый VPN
Похожие темы

Вы не зарегистрированы на нашем сайте. Вам доступна для скачивания только часть контента. Чтобы увидеть весь контент сайта, пожалуйста, зарегистрируйтесь.

Дешевый и быстрый Сидбокс
У Вас отключен VIP статус, поэтому Вам показывается реклама на сайте. Вы можете поддержать наш ресурс и приобрести VIP статус, тем самым отключив показ рекламы на сайте, а ещё VIP пользователи получают 15 инвайтов, которыми можно поделиться с друзьями или знакомыми.
Дешевый и быстрый Сидбокс
[Профиль] [ЛС]
Показать сообщения:    
Ответить на тему

Текущее время: 18-Апр 18:13

Часовой пояс: UTC + 4



Вы не можете начинать темы
Вы не можете отвечать на сообщения
Вы не можете редактировать свои сообщения
Вы не можете удалять свои сообщения
Вы не можете голосовать в опросах
Вы не можете прикреплять файлы к сообщениям
Вы можете скачивать файлы
Анализ сайта korsars.pro Яндекс.Метрика

Материал для зрителей старше 18 летВсе материалы на сайте получены из свободных источников в сети Интернет и представлены исключительно для личного (некоммерческого) использования лицами старше 18 лет.