Тайны Салфер Спрингс / Тайны серных источников / Secrets of Sulphur Springs [S02] (2022) WEB-DLRip-AVC | D | Локализованная версия

Ответить на тему
Статистика раздачи [Обновить пиров]
Размер:  4,79 GB   |    Зарегистрирован:  1 год 10 месяцев   |    .torrent скачан:  26 раз
Раздают:  6  [  0 KB/s  ]   Качают:  9  [  0 KB/s  ]   Подробная статистика пиров
   
 
Автор Сообщение

ExPlayer ®

Оффлайн

Медали


Пол: Мужской

Стаж: 9 лет 6 месяцев

Наличие запрета:

Сообщений: 60281

Откуда: korsars.pro

Отдача: 100 Mb/s

Загрузка: 100 Mb/s



AdGuard VPN - бесплатный, надёжный и быстрый VPN

Создавать темы 22-Июл-2022 05:00

[Цитировать]

Информация о фильме
Название: Тайны Салфер Спрингс / Тайны серных источников
Оригинальное название: Secrets of Sulphur Springs
Год выхода: 2022
Жанр: Драма, детектив, приключения, семейный
Режиссер: Чарльз Прэтт мл., Кристин Уинделл, Мореник Джоэла Эванс, Роберт Дж. Метойер
В ролях: Престон Оливер, Кайли Кёрран, Эль Грэм, Мадлен Макгроу, Лэндон Гордон, Келли Фрай, Джош Браатен, Диандра Лайл, Брайант Тарди, Виктория Пейдж Уоткинс, Джейк Мелроз, Изабела Роуз, Джим Глисон, Юджин Бирд
О фильме: Гриффин Кэмпбелл вместе с родителями переезжает в город, где семья купила заброшенный отель, который планирует восстановить. В школе мальчик узнаёт местную легенду — много лет назад в отеле пропала девочка, и теперь там живет её призрак. Гриффин с новыми друзьями решает исследовать здание и находит таинственный портал, который позволяет путешествовать во времени.

Выпущено: США / Disney Channel, Disney+, GWave Productions
Продолжительность: 8x ~00:24:00
Перевод: Дублированный Невафильм
Файл
Качество: WEB-DLRip-AVC
Формат: MKV
Видео: MPEG-4 AVC/x264@L4.1, 2640 Кбит/сек, 1024 x 576 (1.778) at 23.976 fps
Аудио #1: Русский: AC3, 6 ch, 448 Кбит/сек
Аудио #2: Английский: AC3, 6 ch, 448 Кбит/сек
Субтитры: Русские (Forced, Full), английские [вшитые отключаемые]

MediaInfo:

Общее
Уникальный идентификатор : 209196469630337640580962623775581749151 (0x9D61C6466D118A5DC602138033753F9F)
Полное имя : F:1.ФИЛЬМЫ�1. ФИЛЬМЫТайны Салфер Спрингс Тайны серных источников Secrets of Sulphur Springs [S02] (2022)Tayny Salfer Springs [S02] (2022) WEB-DLRip-AVCSecrets.of.Sulphur.Springs.S02E01.mkv
Формат : Matroska
Версия формата : Version 4
Размер файла : 640 Мбайт
Продолжительность : 25 м. 17 с.
Общий поток : 3 541 Кбит/сек
Дата кодирования : UTC 2022-06-05 10:29:32
Программа кодирования : mkvmerge v66.0.0 ('Josie') 64-bit
Библиотека кодирования : libebml v1.4.2 + libmatroska v1.6.4
Авторское право : *=Z=*
Attachments : poster.png
Язык : und
Видео
Идентификатор : 1
Формат : AVC
Формат/Информация : Advanced Video Codec
Профиль формата : High@L4.1
Настройки формата : CABAC / 14 Ref Frames
Параметр CABAC формата : Да
Параметр RefFrames формата : 14 кадров
Идентификатор кодека : V_MPEG4/ISO/AVC
Продолжительность : 25 м. 17 с.
Битрейт : 2 640 Кбит/сек
Ширина : 1 024 пикселя
Высота : 576 пикселей
Соотношение сторон : 16:9
Режим частоты кадров : Постоянный
Частота кадров : 23,976 (24000/1001) кадра/сек
Цветовое пространство : YUV
Субдискретизация насыщенности : 4:2:0
Битовая глубина : 8 бит
Тип развёртки : Прогрессивная
Бит/(Пиксели*Кадры) : 0.187
Размер потока : 477 Мбайт (74%)
Заголовок : USA / Disney Channel, Disney+, GWave Productions
Библиотека кодирования : x264 core 159 r2991 1771b55
Настройки программы : cabac=1 / ref=14 / deblock=1:-3:-3 / analyse=0x3:0x133 / me=umh / subme=10 / psy=1 / psy_rd=1.00:0.00 / mixed_ref=1 / me_range=32 / chroma_me=1 / trellis=2 / 8x8dct=1 / cqm=0 / deadzone=21,11 / fast_pskip=0 / chroma_qp_offset=-4 / threads=18 / lookahead_threads=4 / sliced_threads=0 / nr=60 / decimate=0 / interlaced=0 / bluray_compat=0 / constrained_intra=0 / bframes=10 / b_pyramid=2 / b_adapt=2 / b_bias=10 / direct=3 / weightb=1 / open_gop=0 / weightp=2 / keyint=240 / keyint_min=24 / scenecut=40 / intra_refresh=0 / rc_lookahead=60 / rc=2pass / mbtree=0 / bitrate=2640 / ratetol=1.0 / qcomp=0.70 / qpmin=3 / qpmax=69 / qpstep=4 / cplxblur=20.0 / qblur=0.5 / vbv_maxrate=5000 / vbv_bufsize=4000 / nal_hrd=none / filler=0 / ip_ratio=1.40 / pb_ratio=1.30 / aq=1:0.60
Язык : English
Default : Да
Forced : Нет
Цветовой диапазон : Limited
Основные цвета : BT.709
Характеристики трансфера : BT.709
Коэффициенты матрицы : BT.709
Аудио #1
Идентификатор : 2
Формат : AC-3
Формат/Информация : Audio Coding 3
Коммерческое название : Dolby Digital
Идентификатор кодека : A_AC3
Продолжительность : 25 м. 17 с.
Вид битрейта : Постоянный
Битрейт : 448 Кбит/сек
Каналы : 6 каналов
Channel layout : L R C LFE Ls Rs
Частота : 48,0 КГц
Частота кадров : 31,250 кадров/сек (1536 SPF)
Битовая глубина : 32 бит
Метод сжатия : С потерями
Размер потока : 81,0 Мбайт (13%)
Заголовок : Dub (Nevafilm)
Язык : Russian
Service kind : Complete Main
Default : Да
Forced : Нет
Аудио #2
Идентификатор : 3
Формат : AC-3
Формат/Информация : Audio Coding 3
Коммерческое название : Dolby Digital
Идентификатор кодека : A_AC3
Продолжительность : 25 м. 17 с.
Вид битрейта : Постоянный
Битрейт : 448 Кбит/сек
Каналы : 6 каналов
Channel layout : L R C LFE Ls Rs
Частота : 48,0 КГц
Частота кадров : 31,250 кадров/сек (1536 SPF)
Битовая глубина : 32 бит
Метод сжатия : С потерями
Размер потока : 81,0 Мбайт (13%)
Заголовок : Original (English)
Язык : English
Service kind : Complete Main
Default : Нет
Forced : Нет
Текст #1
Идентификатор : 4
Формат : ASS
Идентификатор кодека : S_TEXT/ASS
Идентификатор кодека/Информация : Advanced Sub Station Alpha
Продолжительность : 58 с. 928 мс.
Битрейт : 46 бит/сек
Count of elements : 3
Метод сжатия : Без потерь
Размер потока : 345 байт (0%)
Заголовок : Forced
Язык : Russian
Default : Да
Forced : Нет
Текст #2
Идентификатор : 5
Формат : ASS
Идентификатор кодека : S_TEXT/ASS
Идентификатор кодека/Информация : Advanced Sub Station Alpha
Продолжительность : 24 м. 40 с.
Битрейт : 136 бит/сек
Count of elements : 362
Метод сжатия : Без потерь
Размер потока : 24,6 Кбайт (0%)
Язык : Russian
Default : Нет
Forced : Нет
Текст #3
Идентификатор : 6
Формат : ASS
Идентификатор кодека : S_TEXT/ASS
Идентификатор кодека/Информация : Advanced Sub Station Alpha
Продолжительность : 24 м. 40 с.
Битрейт : 108 бит/сек
Count of elements : 365
Метод сжатия : Без потерь
Размер потока : 19,6 Кбайт (0%)
Язык : English
Default : Нет
Forced : Нет
--ТРЕЙЛЕР
СЭМПЛ
AdGuard VPN - бесплатный, надёжный и быстрый VPN
[korsars.pro].t61963.torrent 
Торрент: Зарегистрирован [ 2022-07-22 05:00 ] · 84B64F4FFB09874D7A70E5624F92179EFCEC137E

Скачать .torrent

Размер .torrent файла 13 KB

Статус: проверено
.torrent скачан: 26 раз
Размер: 4,79 GB
Правила

AdGuard VPN - бесплатный, надёжный и быстрый VPN
Похожие темы

Вы не зарегистрированы на нашем сайте. Вам доступна для скачивания только часть контента. Чтобы увидеть весь контент сайта, пожалуйста, зарегистрируйтесь.

Дешевый и быстрый Сидбокс
У Вас отключен VIP статус, поэтому Вам показывается реклама на сайте. Вы можете поддержать наш ресурс и приобрести VIP статус, тем самым отключив показ рекламы на сайте, а ещё VIP пользователи получают 15 инвайтов, которыми можно поделиться с друзьями или знакомыми.
Дешевый и быстрый Сидбокс
AdGuard - Интернет без рекламы и слежки в любом браузере
[Профиль] [ЛС]
Показать сообщения:    
Ответить на тему

Текущее время: 28-Май 05:35

Часовой пояс: UTC + 4



Вы не можете начинать темы
Вы не можете отвечать на сообщения
Вы не можете редактировать свои сообщения
Вы не можете удалять свои сообщения
Вы не можете голосовать в опросах
Вы не можете прикреплять файлы к сообщениям
Вы можете скачивать файлы
Анализ сайта korsars.pro Яндекс.Метрика

Материал для зрителей старше 18 летВсе материалы на сайте получены из свободных источников в сети Интернет и представлены исключительно для личного (некоммерческого) использования лицами старше 18 лет.