Убийства в одном здании / Only Murders in the Building [02x01 из 10] (2022) WEB-DL 1080p | AlexFilm

Ответить на тему
Статистика раздачи [Обновить пиров]
Размер:  1,74 GB   |    Зарегистрирован:  1 год 10 месяцев   |    .torrent скачан:  6 раз
Раздают:  3  [  0 KB/s  ]   Качают:  13  [  0 KB/s  ]   Подробная статистика пиров
   
 
Автор Сообщение

ExPlayer ®

Оффлайн

Медали


Пол: Мужской

Стаж: 9 лет 6 месяцев

Наличие запрета:

Сообщений: 60316

Откуда: korsars.pro

Отдача: 100 Mb/s

Загрузка: 100 Mb/s



AdGuard VPN - бесплатный, надёжный и быстрый VPN

Создавать темы 01-Июл-2022 09:00

[Цитировать]


Информация о сериале
Название: Убийства в одном здании
Оригинальное название: Only Murders in the Building
Год выхода: 2022
Жанр: Детектив, комедия, криминал
Режиссёр: Джеми Бэббит, Шерин Дабис, Джиллиан Робеспьер
В ролях: Селена Гомес, Стив Мартин, Мартин Шорт, Аарон Домингес, Ванесса Аспильяга, Райан Бруссар, Майкл Сирил Крейтон, Джина И, Стинг, Дэна Крейц, Энтони Руис, Расселл Дж. Джонс, Адина Версон, Натан Лэйн, Эми Райан, Уильям Рэгсдэйл, Мередит Холцман, Куинси Данн-Бэйкер, Адам Декарло и др.
Описание:
Трое жителей высотного дома на Манхэттене обожают криминальные рассказы и неожиданно оказываются втянуты в расследование убийства, произошедшего прямо у них под носом.

Страна: США
Студия: Hulu
Продолжительность: ~00:35:00
Перевод: Профессиональный (многоголосый закадровый) | AlexFilm | thx. KinoPub
Файл
Кодек: AVC
Качество: WEB-DL 1080p
Видео: 1920x1080 (16:9), 23.976 fps, ~ 6000 Kbps
Аудио №1: AC3, 48,0 kHz, 6 ch, 384 kbps | AlexFilm
Аудио №2: AC3, 48,0 kHz, 6 ch, 384 kbps | Original
Аудио №3: EAC3, 48,0 kHz, 6 ch, 256 kbps | Original
Субтитры: Русские (Forced, Full), английские (Full, SDH)
Реклама: Отсутствует
Исходник: Only.Murders.in.the.Building.S02.1080p.DSNP.WEB-DL.DDP5.1.H.264-NTb

Список серий:

01. Persons of Interest / Подозреваемые вызывающие интерес

MediaInfo:

Complete name : D:Only_Murders_in_the_Building_(s02)_AlexFilm_1080pOnly.Murders.in.the.Building.2022.S02E01.Persons.of.Interest.1080p.DSNP.WEB-DL.DDP5.1.x264-NTb_EniaHD.mkv
Format : Matroska
Format version : Version 4
File size : 1.74 GiB
Duration : 35 min 42 s
Overall bit rate mode : Variable
Overall bit rate : 6 979 kb/s
Encoded date : UTC 2022-06-29 13:11:39
Writing application : mkvmerge v58.0.0 ('Supper's Ready') 64-bit
Writing library : libebml v1.4.2 + libmatroska v1.6.4
Video
ID : 1
Format : AVC
Format/Info : Advanced Video Codec
Format profile : High@L4
Format settings : CABAC / 4 Ref Frames
Format settings, CABAC : Yes
Format settings, Reference : 4 frames
Codec ID : V_MPEG4/ISO/AVC
Duration : 35 min 42 s
Bit rate mode : Variable
Bit rate : 5 952 kb/s
Maximum bit rate : 12.7 Mb/s
Width : 1 920 pixels
Height : 1 080 pixels
Display aspect ratio : 16:9
Frame rate mode : Constant
Frame rate : 23.976 (24000/1001) FPS
Color space : YUV
Chroma subsampling : 4:2:0
Bit depth : 8 bits
Scan type : Progressive
Bits/(Pixel*Frame) : 0.120
Stream size : 1.48 GiB (85%)
Title : Release by EniaHD
Default : Yes
Forced : No
Color range : Limited
Color primaries : BT.709
Transfer characteristics : BT.709
Matrix coefficients : BT.709
Audio #1
ID : 2
Format : AC-3
Format/Info : Audio Coding 3
Commercial name : Dolby Digital
Codec ID : A_AC3
Duration : 35 min 42 s
Bit rate mode : Constant
Bit rate : 384 kb/s
Channel(s) : 6 channels
Channel layout : L R C LFE Ls Rs
Sampling rate : 48.0 kHz
Frame rate : 31.250 FPS (1536 SPF)
Compression mode : Lossy
Stream size : 98.1 MiB (6%)
Title : AlexFilm
Language : Russian
Service kind : Complete Main
Default : Yes
Forced : No
Audio #2
ID : 3
Format : AC-3
Format/Info : Audio Coding 3
Commercial name : Dolby Digital
Codec ID : A_AC3
Duration : 35 min 42 s
Bit rate mode : Constant
Bit rate : 384 kb/s
Channel(s) : 6 channels
Channel layout : L R C LFE Ls Rs
Sampling rate : 48.0 kHz
Frame rate : 31.250 FPS (1536 SPF)
Compression mode : Lossy
Stream size : 98.1 MiB (6%)
Language : English
Service kind : Complete Main
Default : No
Forced : No
Audio #3
ID : 4
Format : E-AC-3
Format/Info : Enhanced AC-3
Commercial name : Dolby Digital Plus
Codec ID : A_EAC3
Duration : 35 min 42 s
Bit rate mode : Constant
Bit rate : 256 kb/s
Channel(s) : 6 channels
Channel layout : L R C LFE Ls Rs
Sampling rate : 48.0 kHz
Frame rate : 31.250 FPS (1536 SPF)
Compression mode : Lossy
Stream size : 65.4 MiB (4%)
Language : English
Service kind : Complete Main
Default : No
Forced : No
Text #1
ID : 5
Format : UTF-8
Codec ID : S_TEXT/UTF8
Codec ID/Info : UTF-8 Plain Text
Duration : 33 min 32 s
Bit rate : 2 b/s
Count of elements : 15
Stream size : 599 Bytes (0%)
Title : Forced
Language : Russian
Default : Yes
Forced : No
Text #2
ID : 6
Format : UTF-8
Codec ID : S_TEXT/UTF8
Codec ID/Info : UTF-8 Plain Text
Duration : 34 min 34 s
Bit rate : 118 b/s
Count of elements : 615
Stream size : 30.0 KiB (0%)
Title : Full
Language : Russian
Default : No
Forced : No
Text #3
ID : 7
Format : UTF-8
Codec ID : S_TEXT/UTF8
Codec ID/Info : UTF-8 Plain Text
Duration : 34 min 29 s
Bit rate : 81 b/s
Count of elements : 615
Stream size : 20.6 KiB (0%)
Title : Full
Language : English
Default : No
Forced : No
Text #4
ID : 8
Format : UTF-8
Codec ID : S_TEXT/UTF8
Codec ID/Info : UTF-8 Plain Text
Duration : 35 min 36 s
Bit rate : 96 b/s
Count of elements : 783
Stream size : 25.2 KiB (0%)
Title : SDH
Language : English
Default : No
Forced : No
Menu
00:00:04.004 : Recap
00:01:03.939 : End of Recap
00:07:50.512 : Intro
00:08:32.513 : End of Intro
00:34:53.510 : Credits

Раздача ведётся путём добавления новых серий:

При каждом добавлении создаётся новый торрент. Чтобы начать докачку новой серии, пользователям необходимо сделать следующее:
- остановить скачивание;
- удалить старый торрент у себя из клиента (старые серии удалять не надо);
- скачать новый торрент и запустить его у себя в клиенте вместо старого, при этом указать клиенту путь в старую папку, куда и должно происходить скачивание новых серий.

Скриншоты

AdGuard VPN - бесплатный, надёжный и быстрый VPN
[korsars.pro].t59871.torrent 
Торрент: Зарегистрирован [ 2022-07-01 09:00 ] · 4B711685890A849EF1F3571C28BF3DFBC1389581

Скачать .torrent

Размер .torrent файла 18 KB

Статус: проверено
.torrent скачан: 6 раз
Размер: 1,74 GB
Правила

AdGuard VPN - бесплатный, надёжный и быстрый VPN
Похожие темы

Вы не зарегистрированы на нашем сайте. Вам доступна для скачивания только часть контента. Чтобы увидеть весь контент сайта, пожалуйста, зарегистрируйтесь.

Дешевый и быстрый Сидбокс
У Вас отключен VIP статус, поэтому Вам показывается реклама на сайте. Вы можете поддержать наш ресурс и приобрести VIP статус, тем самым отключив показ рекламы на сайте, а ещё VIP пользователи получают 15 инвайтов, которыми можно поделиться с друзьями или знакомыми.
Дешевый и быстрый Сидбокс
AdGuard - Интернет без рекламы и слежки в любом браузере
[Профиль] [ЛС]
Показать сообщения:    
Ответить на тему

Текущее время: 28-Май 06:26

Часовой пояс: UTC + 4



Вы не можете начинать темы
Вы не можете отвечать на сообщения
Вы не можете редактировать свои сообщения
Вы не можете удалять свои сообщения
Вы не можете голосовать в опросах
Вы не можете прикреплять файлы к сообщениям
Вы можете скачивать файлы
Анализ сайта korsars.pro Яндекс.Метрика

Материал для зрителей старше 18 летВсе материалы на сайте получены из свободных источников в сети Интернет и представлены исключительно для личного (некоммерческого) использования лицами старше 18 лет.