Проект «Адам» / Имя наше - Адам / The Adam Project (2022) WEB-DL-HEVC 2160p | 4K | HDR | Dolby Vision Profile 8 | Netflix

Ответить на тему
Статистика раздачи [Обновить пиров]
Размер:  12,64 GB   |    Зарегистрирован:  4 месяца 9 дней   |    .torrent скачан:  1 раз
Раздают:  34  [  0 KB/s  ]   Качают:  39  [  0 KB/s  ]   Подробная статистика пиров
   
 
Автор Сообщение

4udaki ®

Оффлайн

Медали


Пол: Мужской

Стаж: 7 лет 10 месяцев

Наличие запрета:

Сообщений: 27263

Откуда: korsars.pro

Отдача: 2 Mb/s

Загрузка: 20 Mb/s



Скачать Adguard бесплатно

Создавать темы 20-Май-2022 05:00

[Цитировать]



Информация о фильме
Название: Проект «Адам» / Имя наше - Адам
Оригинальное название: The Adam Project
Год выхода: 2022
Жанр: Фантастика, боевик, комедия, приключения
Режиссер: Шон Леви
В ролях: Райан Рейнольдс, Зои Салдана, Дженнифер Гарнер, Кэтрин Кинер, Марк Руффало, Люси Гест, Элли Харви, Алекс Маллари мл., Брекстон Бьоркен, Бен Уилкинсон
О фильме:
12-летний Адам Рид все еще скорбит по своему отцу, который умер год назад. Однажды он заходит в свой гараж и обнаруживает там раненого пилота, который оказывается самим Адамом из будущего. Взрослый Адам рассказывает маленькому себе о том, что в будущем только-только появилась возможность путешествовать во времени и теперь он пытается вернуться в прошлое, чтобы спасти отца. Герои должны объединить усилия, чтобы выполнить непростую миссию и спасти свой мир.

Страна: США
Студия: 21 Laps Entertainment, Maximum Effort, Skydance Productions
Продолжительность: 01:46:36
Перевод: Дублированный [Netflix]
Файл
Формат: MKV
Кодек: H.265
Качество: WebDL 2160p
Видео: HEVC, HDR10, Dolby Vision Profile 8, 15,1 Mбит/с, 3840x2160, 24.000 кадр/с
Звук:
Аудио #1 Русский: EAC3+Atmos, 48.0 kHz, 5.1 ch, 768 Kbps [Дубляж, Netflix]
Аудио #2 Украинский: EAC3, 48.0 kHz, 5.1 ch, 640 Kbps [Дубляж, Netflix]
Аудио #3 English: EAC3+Atmos, 48.0 kHz, 5.1 ch, 768 Kbps [Original]
Субтитры: Русские(forced, full), украинские(forced, Full), английские(full, SDH)
Примечание: Гибридный релиз получен слиянием UHD Web-DL 2160p HDR + Web-DL 1080p Dolby vision RPU
Дополнительная информация:
Данный вид релизов в MKV сделан в 8-м профиле Dolby Vision для воспроизведении на устройствах с поддержкой DV. Протестировано на тв-боксах Nvidia Shield 2019, Zidoo Z1000 Pro, Ugoos AM6+, TiVo Stream 4K. Не точно подтверждено воспроизведение на телевизорах Sony XG/XH и Phillips. На устройствах без поддержки Dolby Vision будет играть обычный HDR10.
Программные плееры для воспроизведения в DV(на поддерживаемых устройствах): Vimu Player 8.8.8(и выше), Kodi 19(специальная сборка с поддержкой DV), ExoPlayer, JustPlayer.

Mediainfo

Общее
Уникальный идентификатор : 41303975831064047742770295531987574875 (0x1F12DB3C368F026418D9F26CA768A05B)
Полное имя : T:RELEASESThe Adam ProjectThe.Adam.Project.2022.2160p.NF.WEB-DL.DDP5.1.Atmos.DoVi.by.DVT.mkv
Формат : Matroska
Версия формата : Version 4
Размер файла : 12,6 Гбайт
Продолжительность : 1 ч. 46 м.
Общий поток : 17,0 Мбит/сек
Название фильма : The Adam Project (2022) - Release by Dolby Vision Torrents
Дата кодирования : UTC 2022-05-19 18:01:54
Программа кодирования : mkvmerge v67.0.0 ('Under Stars') 64-bit
Библиотека кодирования : libebml v1.4.2 + libmatroska v1.6.4
Attachments : The Adam Project rut.jpg
Видео
Идентификатор : 1
Формат : HEVC
Формат/Информация : High Efficiency Video Coding
Профиль формата : Main 10@L5@Main
HDR format : Dolby Vision, Version 1.0, dvhe.08.06, BL+RPU, HDR10 compatible / SMPTE ST 2086, HDR10 compatible
Идентификатор кодека : V_MPEGH/ISO/HEVC
Продолжительность : 1 ч. 44 м.
Битрейт : 15,1 Мбит/сек
Ширина : 3 840 пикселей
Высота : 2 160 пикселей
Соотношение сторон : 16:9
Режим частоты кадров : Постоянный
Частота кадров : 24,000 кадра/сек
Цветовое пространство : YUV
Субдискретизация насыщенности : 4:2:0 (Type 2)
Битовая глубина : 10 бит
Бит/(Пиксели*Кадры) : 0.076
Размер потока : 11,0 Гбайт (87%)
Заголовок : The Adam Project (2022) - HYBRID by DVT
Язык : English
Default : Да
Forced : Нет
Цветовой диапазон : Limited
Основные цвета : BT.2020
Характеристики трансфера : PQ
Коэффициенты матрицы : BT.2020 non-constant
Mastering display color primaries : Display P3
Mastering display luminance : min: 0.0001 cd/m2, max: 1000 cd/m2
Maximum Content Light Level : 1634 cd/m2
Maximum Frame-Average Light Level : 109 cd/m2
Аудио #1
Идентификатор : 2
Формат : E-AC-3 JOC
Формат/Информация : Enhanced AC-3 with Joint Object Coding
Коммерческое название : Dolby Digital Plus with Dolby Atmos
Идентификатор кодека : A_EAC3
Продолжительность : 1 ч. 46 м.
Вид битрейта : Постоянный
Битрейт : 768 Кбит/сек
Каналы : 6 каналов
Channel layout : L R C LFE Ls Rs
Частота : 48,0 КГц
Частота кадров : 31,250 кадров/сек (1536 SPF)
Метод сжатия : С потерями
Размер потока : 586 Мбайт (5%)
Заголовок : Дубляж, Netflix
Язык : Russian
Service kind : Complete Main
Default : Да
Forced : Нет
Complexity index : 16
Number of dynamic objects : 15
Bed channel count : 1 канал
Bed channel configuration : LFE
Аудио #2
Идентификатор : 3
Формат : E-AC-3
Формат/Информация : Enhanced AC-3
Коммерческое название : Dolby Digital Plus
Идентификатор кодека : A_EAC3
Продолжительность : 1 ч. 46 м.
Вид битрейта : Постоянный
Битрейт : 640 Кбит/сек
Каналы : 6 каналов
Channel layout : L R C LFE Ls Rs
Частота : 48,0 КГц
Частота кадров : 31,250 кадров/сек (1536 SPF)
Метод сжатия : С потерями
Размер потока : 488 Мбайт (4%)
Заголовок : Дубляж, Netflix
Язык : Ukrainian
Service kind : Complete Main
Default : Нет
Forced : Нет
Аудио #3
Идентификатор : 4
Формат : E-AC-3 JOC
Формат/Информация : Enhanced AC-3 with Joint Object Coding
Коммерческое название : Dolby Digital Plus with Dolby Atmos
Идентификатор кодека : A_EAC3
Продолжительность : 1 ч. 46 м.
Вид битрейта : Постоянный
Битрейт : 768 Кбит/сек
Каналы : 6 каналов
Channel layout : L R C LFE Ls Rs
Частота : 48,0 КГц
Частота кадров : 31,250 кадров/сек (1536 SPF)
Метод сжатия : С потерями
Размер потока : 586 Мбайт (5%)
Заголовок : Original
Язык : English
Service kind : Complete Main
Default : Нет
Forced : Нет
Complexity index : 16
Number of dynamic objects : 15
Bed channel count : 1 канал
Bed channel configuration : LFE
Текст #1
Идентификатор : 5
Формат : UTF-8
Идентификатор кодека : S_TEXT/UTF8
Идентификатор кодека/Информация : UTF-8 Plain Text
Продолжительность : 1 ч. 43 м.
Битрейт : 0 бит/сек
Count of elements : 11
Размер потока : 411 байт (0%)
Заголовок : Forced
Язык : Russian
Default : Да
Forced : Нет
Текст #2
Идентификатор : 6
Формат : UTF-8
Идентификатор кодека : S_TEXT/UTF8
Идентификатор кодека/Информация : UTF-8 Plain Text
Продолжительность : 1 ч. 43 м.
Битрейт : 96 бит/сек
Count of elements : 1451
Размер потока : 72,8 Кбайт (0%)
Заголовок : Full
Язык : Russian
Default : Нет
Forced : Нет
Текст #3
Идентификатор : 7
Формат : UTF-8
Идентификатор кодека : S_TEXT/UTF8
Идентификатор кодека/Информация : UTF-8 Plain Text
Продолжительность : 1 ч. 43 м.
Битрейт : 0 бит/сек
Count of elements : 13
Размер потока : 448 байт (0%)
Заголовок : Forced
Язык : Ukrainian
Default : Нет
Forced : Нет
Текст #4
Идентификатор : 8
Формат : UTF-8
Идентификатор кодека : S_TEXT/UTF8
Идентификатор кодека/Информация : UTF-8 Plain Text
Продолжительность : 1 ч. 43 м.
Битрейт : 94 бит/сек
Count of elements : 1462
Размер потока : 71,3 Кбайт (0%)
Заголовок : Full
Язык : Ukrainian
Default : Нет
Forced : Нет
Текст #5
Идентификатор : 9
Формат : UTF-8
Идентификатор кодека : S_TEXT/UTF8
Идентификатор кодека/Информация : UTF-8 Plain Text
Продолжительность : 1 ч. 35 м.
Битрейт : 73 бит/сек
Count of elements : 1535
Размер потока : 51,7 Кбайт (0%)
Заголовок : Full
Язык : English
Default : Нет
Forced : Нет
Текст #6
Идентификатор : 10
Формат : UTF-8
Идентификатор кодека : S_TEXT/UTF8
Идентификатор кодека/Информация : UTF-8 Plain Text
Продолжительность : 1 ч. 42 м.
Битрейт : 83 бит/сек
Count of elements : 1818
Размер потока : 62,3 Кбайт (0%)
Заголовок : SDH
Язык : English
Default : Нет
Forced : Нет

Скриншоты

Релиз от: Dolby Vision Torrents
[korsars.pro].t57603.torrent 
Торрент: Зарегистрирован [ 2022-05-20 05:00 ] · 6F1742E89F2EC44DCA181EF3859E752DE431643C

Скачать .torrent

Размер .torrent файла 127 KB

Статус: проверено
.torrent скачан: 1 раз
Размер: 12,64 GB
Правила
Похожие темы

Вы не зарегистрированы на нашем сайте. Вам доступна для скачивания только часть контента. Чтобы увидеть весь контент сайта, пожалуйста, зарегистрироруйтесь.

Дешевый и быстрый Сидбокс

Ключи и пин-коды

Игры, Кредитные карты, IP-телефония, Интернет провайдеры, Мобильная связь, Спутниковое ТВ

Электронные книги

Бизнес и экономика, Дом, быт, семья, досуг, Санкт-Петербург, Компьютеры и интернет, Наука и образование, Техническая литература, Юридическая литература

Цифровые товары

iTunes & App Store, Базы данных, Дизайн, Доступ к ресурсам, Kарты продления, ключи, Фотографии, Шаблоны для сайтов

Программное обеспечение

Безопасность, Игры, PC, Интернет, Мобильная связь, Программирование, Продвижение сайтов (SEO), Утилиты
У Вас отключен VIP статус, поэтому Вам показывается реклама на сайте. Вы можете поддержать наш ресурс и приобрести VIP статус, тем самым отключив показ рекламы на сайте, а ещё VIP пользователи получают возможность

смотреть аниме онлайн в HD качестве

(не распространяется на раздел Flarrow Films), а так же получить 5 инвайтов, которыми можно поделиться с друзьями или знакомыми.
Дешевый и быстрый Сидбокс

Ключи и пин-коды

Игры, Кредитные карты, IP-телефония, Интернет провайдеры, Мобильная связь, Спутниковое ТВ

Электронные книги

Бизнес и экономика, Дом, быт, семья, досуг, Санкт-Петербург, Компьютеры и интернет, Наука и образование, Техническая литература, Юридическая литература

Цифровые товары

iTunes & App Store, Базы данных, Дизайн, Доступ к ресурсам, Kарты продления, ключи, Фотографии, Шаблоны для сайтов

Программное обеспечение

Безопасность, Игры, PC, Интернет, Мобильная связь, Программирование, Продвижение сайтов (SEO), Утилиты
[Профиль] [ЛС]
Показать сообщения:    
Ответить на тему

Текущее время: 29-Сен 14:41

Часовой пояс: UTC + 4



Вы не можете начинать темы
Вы не можете отвечать на сообщения
Вы не можете редактировать свои сообщения
Вы не можете удалять свои сообщения
Вы не можете голосовать в опросах
Вы не можете прикреплять файлы к сообщениям
Вы можете скачивать файлы
Анализ сайта korsars.pro Яндекс.Метрика