Лунный рыцарь / Moon Knight [S01] (2022) WEB-DL-HEVC 2160p | 4K | HDR | Dolby Vision Profile 8 | P, D

Ответить на тему
Статистика раздачи [Обновить пиров]
Размер:  50,52 GB   |    Зарегистрирован:  2 года   |    .torrent скачан:  13 раз
Раздают:  30  [  0 KB/s  ]   Качают:  35  [  0 KB/s  ]   Подробная статистика пиров
   
 
Автор Сообщение

ExPlayer ®

Оффлайн

Медали


Пол: Мужской

Стаж: 9 лет 6 месяцев

Наличие запрета:

Сообщений: 60140

Откуда: korsars.pro

Отдача: 100 Mb/s

Загрузка: 100 Mb/s



AdGuard VPN - бесплатный, надёжный и быстрый VPN

Создавать темы 14-Май-2022 09:00

[Цитировать]



Информация о фильме
Название: Лунный рыцарь
Оригинальное название: Moon Knight
Год выхода: 2022
Жанр: Ужасы, фантастика, фэнтези, боевик, драма, приключения
Режиссер: Джастин Бенсон, Мохамед Диаб, Аарон Мурхед
В ролях: Оскар Айзек, Итэн Хоук, Мэй Каламави, Гаспар Ульель, Ф. Мюррэй Абрахам, Фернанда Андраде, София Асир, Диана Бермудес, Энн Акин, Рей Лукас и другие.
О фильме:
Основанный на персонаже комиксов Marvel, созданном писателем Дугом Мёнчем и художником Доном Перлином, «Лунный рыцарь» от исполнительного продюсера Джереми Слейтера рассказывает историю Стивена Гранта (Оскар Айзек), кроткого «продавца сувениров», живущего в одиночестве в Лондоне недалеко от музея, где он работает. Бывший морской пехотинец долгое время работал на ЦРУ, после чего стал наёмником. Находясь на грани жизни и смерти, был воскрешён древним божеством. Он становится Лунным рыцарем после того, как он создал канал для египетского бога луны Хонсу, который наделил его особыми способностями. Хотя Стивен предпочел бы проводить свои дни дома или водить посетителей показывая экспонаты музея Древнего Египта, он обычно застревает в кладовой сувенирного магазина из-за своей неорганизованности на рабочем месте. Каким бы сознанием не обладал Стивен, он часто теряет значительные его части вместе с любыми воспоминаниями о том, что происходит всякий раз, когда он впадает в одно из своих загадочных состояний фуги. У него наблюдается расстройство личности, в результате которого в бою иногда сражаются его альтер-эго. Итан Хоук и Мэй Каламави присоединяются к сюжету сериала в роли Артура Хэрроу и Лейлы соответственно.

Страна: США
Студия: Marvel Studios Inc.
Продолжительность: 6 x ~ 00:45:00
Перевод: Профессиональный многоголосый, дублированный(любительский)
Файл
Формат: MKV
Кодек: H.265
Качество: WebDL 2160p
Видео: HEVC, HDR10, Dolby Vision Profile 8, ~22 Mбит/с, 3840x2160, 24,000 кадр/с
Звук:
Аудио #1 Русский: AC3, 48.0 kHz, 5.1 ch, 448 Kbps [MVO, NewComers]
Аудио #2 Русский: AC3, 48.0 kHz, 5.1 ch, 448 Kbps [MVO, HDRezka Studio]
Аудио #3 Русский: AC3, 48.0 kHz, 2.0 ch, 256 Kbps [MVO, Red Head Sound]
Аудио #4 Русский: AC3, 48.0 kHz, 2.0 ch, 320 Kbps [MVO, Flarrow Films]
Аудио #5 Русский: AC3, 48.0 kHz, 2.0 ch, 384 Kbps [MVO, RuDub]
Аудио #6 Русский: AC3, 48.0 kHz, 2.0 ch, 384 Kbps [MVO, LostFilm]
Аудио #7 Русский: AC3, 48.0 kHz, 2.0 ch, 192 Kbps [MVO, TVShows]
Аудио #8 Украинский: AC3, 48.0 kHz, 5.1 ch, 448 Kbps [MVO, Цікава Ідея]
Аудио #9 English: EAC3+Atmos, 48.0 kHz, 5.1 ch, 768 Kbps
Субтитры: русские(forced, полные(FOCS, Где тексты, Лебовски?)), английские(full, SDH)
Примечание: Гибридный релиз получен слиянием UHD Web-DL 2160p HDR + Web-DL 2160p Dolby vision RPU
Сэмпл: Google Disk
Дополнительная информация:
Данный вид релизов в MKV сделан в 8-м профиле Dolby Vision для воспроизведении на устройствах с поддержкой DV. Протестировано на тв-боксах Nvidia Shield 2019, Zidoo Z1000 Pro, Ugoos AM6+, TiVo Stream 4K. Не точно подтверждено воспроизведение на телевизорах Sony XG/XH и Phillips. На устройствах без поддержки Dolby Vision будет играть обычный HDR10.
Программные плееры для воспроизведения в DV(на поддерживаемых устройствах): Vimu Player 8.8.8(и выше), Kodi 19(специальная сборка с поддержкой DV), ExoPlayer, JustPlayer.

Mediainfo

Общее
Уникальный идентификатор : 69794042939565997436782419665245516753 (0x3481D7FE4706849FA37A90BD2CAD33D1)
Полное имя : T:RELEASESmoon knightMoon.Knight.2022.S01E01.2160p.WEB-DL.DDP5.1.Atmos.HDR.DoVi.Hybrid.P8.by.DVT.mkv
Формат : Matroska
Версия формата : Version 4
Размер файла : 8,01 Гбайт
Продолжительность : 45 м. 35 с.
Общий поток : 25,2 Мбит/сек
Название фильма : Moon Knight S01E01 (2022) - Release by Dolby Vision Torrents
Дата кодирования : UTC 2022-05-05 17:53:27
Программа кодирования : mkvmerge v67.0.0 ('Under Stars') 64-bit
Библиотека кодирования : libebml v1.4.2 + libmatroska v1.6.4
Обложка : Yes
Attachments : cover.jpg
Видео
Идентификатор : 1
Формат : HEVC
Формат/Информация : High Efficiency Video Coding
Профиль формата : Main 10@L5@Main
HDR format : Dolby Vision, Version 1.0, dvhe.08.06, BL+RPU, HDR10 compatible
Идентификатор кодека : V_MPEGH/ISO/HEVC
Продолжительность : 45 м. 35 с.
Битрейт : 21,5 Мбит/сек
Ширина : 3 840 пикселей
Высота : 2 160 пикселей
Соотношение сторон : 16:9
Режим частоты кадров : Постоянный
Частота кадров : 24,000 кадра/сек
Цветовое пространство : YUV
Субдискретизация насыщенности : 4:2:0
Битовая глубина : 10 бит
Бит/(Пиксели*Кадры) : 0.108
Размер потока : 6,85 Гбайт (85%)
Заголовок : Moon Knight S01E01 (2022) - HYBRID by DVT
Библиотека кодирования : x265 3.5:[Linux][GCC 9.3.0][64 bit] 10bit
Настройки программы : cpuid=1111039 / frame-threads=1 / numa-pools=16 / wpp / no-pmode / no-pme / no-psnr / no-ssim / log-level=2 / input-csp=1 / input-res=3840x2160 / interlace=0 / total-frames=0 / level-idc=50 / high-tier=0 / uhd-bd=0 / ref=3 / no-allow-non-conformance / repeat-headers / annexb / no-aud / no-hrd / info / hash=0 / no-temporal-layers / no-open-gop / min-keyint=48 / keyint=48 / gop-lookahead=0 / bframes=2 / b-adapt=0 / b-pyramid / bframe-bias=0 / rc-lookahead=48 / lookahead-slices=8 / scenecut=0 / hist-scenecut=0 / radl=0 / no-splice / no-intra-refresh / ctu=32 / min-cu-size=8 / no-rect / no-amp / max-tu-size=16 / tu-inter-depth=2 / tu-intra-depth=2 / limit-tu=0 / rdoq-level=1 / dynamic-rd=0.00 / no-ssim-rd / signhide / no-tskip / nr-intra=0 / nr-inter=0 / no-constrained-intra / no-strong-intra-smoothing / max-merge=3 / limit-refs=1 / no-limit-modes / me=1 / subme=2 / merange=44 / temporal-mvp / no-frame-dup / no-hme / weightp / no-weightb / no-analyze-src-pics / deblock=0:0 / no-sao / no-sao-non-deblock / rd=4 / selective-sao=0 / early-skip / rskip / no-fast-intra / no-tskip-fast / no-cu-lossless / b-intra / no-splitrd-skip / rdpenalty=1 / psy-rd=1.60 / psy-rdoq=5.00 / no-rd-refine / no-lossless / cbqpoffs=0 / crqpoffs=0 / rc=abr / bitrate=23000 / qcomp=0.75 / qpstep=4 / stats-write=0 / stats-read=0 / vbv-maxrate=25000 / vbv-bufsize=25000 / vbv-init=0.9 / ipratio=1.40 / pbratio=1.30 / aq-mode=3 / aq-strength=1.00 / no-cutree / zone-count=0 / no-strict-cbr / qg-size=32 / no-rc-grain / qpmax=69 / qpmin=0 / no-const-vbv / sar=1 / overscan=0 / videoformat=5 / range=0 / colorprim=9 / transfer=16 / colormatrix=9 / chromaloc=0 / display-window=0 / cll=0,0 / min-luma=0 / max-luma=1023 / log2-max-poc-lsb=8 / vui-timing-info / vui-hrd-info / slices=1 / no-opt-qp-pps / no-opt-ref-list-length-pps / no-multi-pass-opt-rps / scenecut-bias=0.00 / hist-threshold=0.01 / no-opt-cu-delta-qp / no-aq-motion / no-hdr10 / hdr10-opt / no-dhdr10-opt / no-idr-recovery-sei / analysis-reuse-level=0 / analysis-save-reuse-level=0 / analysis-load-reuse-level=0 / scale-factor=0 / refine-intra=0 / refine-inter=0 / refine-mv=1 / refine-ctu-distortion=0 / no-limit-sao / ctu-info=0 / no-lowpass-dct / refine-analysis-type=0 / copy-pic=1 / max-ausize-factor=1.0 / no-dynamic-refine / no-single-sei / no-hevc-aq / no-svt / no-field / qp-adaptation-range=1.00 / no-scenecut-aware-qpconformance-window-offsets / right=0 / bottom=0
Язык : English
Default : Да
Forced : Нет
Цветовой диапазон : Limited
Основные цвета : BT.2020
Характеристики трансфера : PQ
Коэффициенты матрицы : BT.2020 non-constant
Аудио #1
Идентификатор : 2
Формат : AC-3
Формат/Информация : Audio Coding 3
Коммерческое название : Dolby Digital
Идентификатор кодека : A_AC3
Продолжительность : 45 м. 35 с.
Вид битрейта : Постоянный
Битрейт : 448 Кбит/сек
Каналы : 6 каналов
Channel layout : L R C LFE Ls Rs
Частота : 48,0 КГц
Частота кадров : 31,250 кадров/сек (1536 SPF)
Метод сжатия : С потерями
Размер потока : 146 Мбайт (2%)
Заголовок : MVO, NewComers
Язык : Russian
Service kind : Complete Main
Default : Да
Forced : Нет
Аудио #2
Идентификатор : 3
Формат : AC-3
Формат/Информация : Audio Coding 3
Коммерческое название : Dolby Digital
Идентификатор кодека : A_AC3
Продолжительность : 45 м. 35 с.
Вид битрейта : Постоянный
Битрейт : 448 Кбит/сек
Каналы : 6 каналов
Channel layout : L R C LFE Ls Rs
Частота : 48,0 КГц
Частота кадров : 31,250 кадров/сек (1536 SPF)
Метод сжатия : С потерями
Размер потока : 146 Мбайт (2%)
Заголовок : MVO, HDRezka Studio
Язык : Russian
Service kind : Complete Main
Default : Нет
Forced : Нет
Аудио #3
Идентификатор : 4
Формат : AC-3
Формат/Информация : Audio Coding 3
Коммерческое название : Dolby Digital
Идентификатор кодека : A_AC3
Продолжительность : 45 м. 35 с.
Вид битрейта : Постоянный
Битрейт : 256 Кбит/сек
Каналы : 2 канала
Channel layout : L R
Частота : 48,0 КГц
Частота кадров : 31,250 кадров/сек (1536 SPF)
Метод сжатия : С потерями
Размер потока : 83,5 Мбайт (1%)
Заголовок : MVO, Red Head Sound
Язык : Russian
Service kind : Complete Main
Default : Нет
Forced : Нет
Аудио #4
Идентификатор : 5
Формат : AC-3
Формат/Информация : Audio Coding 3
Коммерческое название : Dolby Digital
Идентификатор кодека : A_AC3
Продолжительность : 45 м. 35 с.
Вид битрейта : Постоянный
Битрейт : 320 Кбит/сек
Каналы : 2 канала
Channel layout : L R
Частота : 48,0 КГц
Частота кадров : 31,250 кадров/сек (1536 SPF)
Метод сжатия : С потерями
Размер потока : 104 Мбайт (1%)
Заголовок : MVO, Flarrow Films
Язык : Russian
Service kind : Complete Main
Default : Нет
Forced : Нет
Аудио #5
Идентификатор : 6
Формат : AC-3
Формат/Информация : Audio Coding 3
Коммерческое название : Dolby Digital
Идентификатор кодека : A_AC3
Продолжительность : 45 м. 35 с.
Вид битрейта : Постоянный
Битрейт : 384 Кбит/сек
Каналы : 2 канала
Channel layout : L R
Частота : 48,0 КГц
Частота кадров : 31,250 кадров/сек (1536 SPF)
Метод сжатия : С потерями
Размер потока : 125 Мбайт (2%)
Заголовок : MVO, RuDub
Язык : Russian
Service kind : Complete Main
Default : Нет
Forced : Нет
Аудио #6
Идентификатор : 7
Формат : AC-3
Формат/Информация : Audio Coding 3
Коммерческое название : Dolby Digital
Идентификатор кодека : A_AC3
Продолжительность : 45 м. 35 с.
Вид битрейта : Постоянный
Битрейт : 384 Кбит/сек
Каналы : 2 канала
Channel layout : L R
Частота : 48,0 КГц
Частота кадров : 31,250 кадров/сек (1536 SPF)
Метод сжатия : С потерями
Размер потока : 125 Мбайт (2%)
Заголовок : MVO, LostFilm
Язык : Russian
Service kind : Complete Main
Default : Нет
Forced : Нет
Аудио #7
Идентификатор : 8
Формат : AC-3
Формат/Информация : Audio Coding 3
Коммерческое название : Dolby Digital
Идентификатор кодека : A_AC3
Продолжительность : 45 м. 35 с.
Вид битрейта : Постоянный
Битрейт : 192 Кбит/сек
Каналы : 2 канала
Channel layout : L R
Частота : 48,0 КГц
Частота кадров : 31,250 кадров/сек (1536 SPF)
Метод сжатия : С потерями
Размер потока : 62,6 Мбайт (1%)
Заголовок : MVO, TVShows
Язык : Russian
Service kind : Complete Main
Default : Нет
Forced : Нет
Аудио #8
Идентификатор : 9
Формат : AC-3
Формат/Информация : Audio Coding 3
Коммерческое название : Dolby Digital
Идентификатор кодека : A_AC3
Продолжительность : 45 м. 35 с.
Вид битрейта : Постоянный
Битрейт : 448 Кбит/сек
Каналы : 6 каналов
Channel layout : L R C LFE Ls Rs
Частота : 48,0 КГц
Частота кадров : 31,250 кадров/сек (1536 SPF)
Метод сжатия : С потерями
Размер потока : 146 Мбайт (2%)
Заголовок : MVO, Цікава Ідея
Язык : Ukrainian
Service kind : Complete Main
Default : Нет
Forced : Нет
Аудио #9
Идентификатор : 10
Формат : E-AC-3 JOC
Формат/Информация : Enhanced AC-3 with Joint Object Coding
Коммерческое название : Dolby Digital Plus with Dolby Atmos
Идентификатор кодека : A_EAC3
Продолжительность : 45 м. 35 с.
Вид битрейта : Постоянный
Битрейт : 768 Кбит/сек
Каналы : 6 каналов
Channel layout : L R C LFE Ls Rs
Частота : 48,0 КГц
Частота кадров : 31,250 кадров/сек (1536 SPF)
Метод сжатия : С потерями
Размер потока : 250 Мбайт (3%)
Заголовок : Original
Язык : English
Service kind : Complete Main
Default : Нет
Forced : Нет
Complexity index : 16
Number of dynamic objects : 15
Bed channel count : 1 канал
Bed channel configuration : LFE
Текст #1
Идентификатор : 11
Формат : UTF-8
Идентификатор кодека : S_TEXT/UTF8
Идентификатор кодека/Информация : UTF-8 Plain Text
Продолжительность : 39 м. 22 с.
Битрейт : 4 бит/сек
Count of elements : 20
Размер потока : 1,25 Кбайт (0%)
Заголовок : Forced
Язык : Russian
Default : Да
Forced : Нет
Текст #2
Идентификатор : 12
Формат : UTF-8
Идентификатор кодека : S_TEXT/UTF8
Идентификатор кодека/Информация : UTF-8 Plain Text
Продолжительность : 39 м. 30 с.
Битрейт : 85 бит/сек
Count of elements : 440
Размер потока : 24,9 Кбайт (0%)
Заголовок : FOCS
Язык : Russian
Default : Нет
Forced : Нет
Текст #3
Идентификатор : 13
Формат : UTF-8
Идентификатор кодека : S_TEXT/UTF8
Идентификатор кодека/Информация : UTF-8 Plain Text
Продолжительность : 37 м. 52 с.
Битрейт : 88 бит/сек
Count of elements : 451
Размер потока : 24,7 Кбайт (0%)
Заголовок : Где тексты, Лебовски?
Язык : Russian
Default : Нет
Forced : Нет
Текст #4
Идентификатор : 14
Формат : UTF-8
Идентификатор кодека : S_TEXT/UTF8
Идентификатор кодека/Информация : UTF-8 Plain Text
Продолжительность : 36 м. 55 с.
Битрейт : 58 бит/сек
Count of elements : 450
Размер потока : 15,9 Кбайт (0%)
Заголовок : Full
Язык : English
Default : Нет
Forced : Нет
Текст #5
Идентификатор : 15
Формат : UTF-8
Идентификатор кодека : S_TEXT/UTF8
Идентификатор кодека/Информация : UTF-8 Plain Text
Продолжительность : 41 м. 9 с.
Битрейт : 60 бит/сек
Count of elements : 555
Размер потока : 18,4 Кбайт (0%)
Заголовок : SDH
Язык : English
Default : Нет
Forced : Нет
Меню
00:43:02.583 : en:Credits

Скриншоты

Релиз от: Dolby Vision Torrents
AdGuard VPN - бесплатный, надёжный и быстрый VPN
[korsars.pro].t57271.torrent 
Торрент: Зарегистрирован [ 2022-05-14 09:00 ] · EAF06C4B64F3C5ED6872BE5180AEBA710A7BD85A

Скачать .torrent

Размер .torrent файла 254 KB

Статус: проверено
.torrent скачан: 13 раз
Размер: 50,52 GB
Правила

AdGuard VPN - бесплатный, надёжный и быстрый VPN
Похожие темы

Вы не зарегистрированы на нашем сайте. Вам доступна для скачивания только часть контента. Чтобы увидеть весь контент сайта, пожалуйста, зарегистрируйтесь.

Дешевый и быстрый Сидбокс
У Вас отключен VIP статус, поэтому Вам показывается реклама на сайте. Вы можете поддержать наш ресурс и приобрести VIP статус, тем самым отключив показ рекламы на сайте, а ещё VIP пользователи получают 15 инвайтов, которыми можно поделиться с друзьями или знакомыми.
Дешевый и быстрый Сидбокс
AdGuard - Интернет без рекламы и слежки в любом браузере
[Профиль] [ЛС]
Показать сообщения:    
Ответить на тему

Текущее время: 25-Май 00:16

Часовой пояс: UTC + 4



Вы не можете начинать темы
Вы не можете отвечать на сообщения
Вы не можете редактировать свои сообщения
Вы не можете удалять свои сообщения
Вы не можете голосовать в опросах
Вы не можете прикреплять файлы к сообщениям
Вы можете скачивать файлы
Анализ сайта korsars.pro Яндекс.Метрика

Материал для зрителей старше 18 летВсе материалы на сайте получены из свободных источников в сети Интернет и представлены исключительно для личного (некоммерческого) использования лицами старше 18 лет.