Лунный рыцарь / Moon Knight [S01] (2022) WEB-DLRip 720p | HDrezka Studio

Ответить на тему
Статистика раздачи [Обновить пиров]
Размер:  9,81 GB   |    Зарегистрирован:  2 года   |    .torrent скачан:  0 раз
Раздают:  53  [  0 KB/s  ]   Качают:  81  [  0 KB/s  ]   Подробная статистика пиров
   
 
Автор Сообщение

ExPlayer ®

Оффлайн

Медали


Пол: Мужской

Стаж: 9 лет 6 месяцев

Наличие запрета:

Сообщений: 60281

Откуда: korsars.pro

Отдача: 100 Mb/s

Загрузка: 100 Mb/s



AdGuard VPN - бесплатный, надёжный и быстрый VPN

Создавать темы 08-Май-2022 21:00

[Цитировать]

Информация о фильме
Название: Лунный рыцарь
Оригинальное название: Moon Knight
Год выхода: 2022
Жанр: Ужасы, фантастика, фэнтези, боевик, драма, приключения
Режиссер: Джастин Бенсон, Мохамед Диаб, Аарон Мурхед
В ролях: Оскар Айзек, Итан Хоук, May Calamawy, Гаспар Ульель, Ф. Мюррэй Абрахам, Фернанда Андраде, София Асир, Диана Бермудес, Энн Акин, Рей Лукас
О фильме: Бывший морпех, страдающий от диссоциативного расстройства, внезапно получает власть и силы египетского Бога Луны.

Выпущено: США / Marvel Studios Inc.
Продолжительность: 6x ~ 00:45:00
Перевод: Профессиональный (многоголосый закадровый) HDrezka Studio
Файл
Качество: WEB-DLRip 720p
Формат: MKV
Видео: MPEG-4 AVC/x264@L4.1, 4000 Кбит/сек, 1280x534 (2.412) at 24.000 fps
Аудио #1: Русский: AC3, 6 ch, 448 Кбит/сек
Аудио #2: Английский: AC3, 6 ch, 448 Кбит/сек
Субтитры: русские, английские [вшитые отключаемые]

MediaInfo:

Общее
Уникальный идентификатор : 14050677369892175253426514675741913809 (0xA920FE11A8C5F92F9182DBCBC4A72D1)
Полное имя : F:1.ФИЛЬМЫ1. ФИЛЬМЫЛунный рыцарь Moon Knight 2022Lunnyy rytsar Moon Knight [S01] (2022) WEB-DLRip 720p HDrezka StudioMoon.Knight.S01E01.mkv
Формат : Matroska
Версия формата : Version 4
Размер файла : 1,55 Гбайт
Продолжительность : 45 м. 32 с.
Общий поток : 4 888 Кбит/сек
Программа кодирования : Lavf
Библиотека кодирования : Lavf
Авторское право : *=Z=*
ErrorDetectionType : Per level 1
Attachments : poster.png
Язык : und
Видео
Идентификатор : 1
Формат : AVC
Формат/Информация : Advanced Video Codec
Профиль формата : High@L4.1
Настройки формата : CABAC / 12 Ref Frames
Параметр CABAC формата : Да
Параметр RefFrames формата : 12 кадров
Идентификатор кодека : V_MPEG4/ISO/AVC
Продолжительность : 45 м. 32 с.
Битрейт : 4 000 Кбит/сек
Ширина : 1 280 пикселей
Высота : 534 пикселя
Соотношение сторон : 2,40:1
Режим частоты кадров : Постоянный
Частота кадров : 24,000 кадра/сек
Цветовое пространство : YUV
Субдискретизация насыщенности : 4:2:0
Битовая глубина : 8 бит
Тип развёртки : Прогрессивная
Бит/(Пиксели*Кадры) : 0.244
Размер потока : 1,24 Гбайт (80%)
Заголовок : USA / Marvel Studios Inc.
Библиотека кодирования : x264 core 159 r2991 1771b55
Настройки программы : cabac=1 / ref=12 / deblock=1:-3:-3 / analyse=0x3:0x133 / me=umh / subme=11 / psy=1 / psy_rd=1.00:0.00 / mixed_ref=1 / me_range=32 / chroma_me=1 / trellis=2 / 8x8dct=1 / cqm=0 / deadzone=21,18 / fast_pskip=0 / chroma_qp_offset=-2 / threads=19 / lookahead_threads=4 / sliced_threads=0 / nr=60 / decimate=0 / interlaced=0 / bluray_compat=0 / constrained_intra=0 / bframes=16 / b_pyramid=2 / b_adapt=2 / b_bias=10 / direct=3 / weightb=1 / open_gop=0 / weightp=2 / keyint=240 / keyint_min=24 / scenecut=40 / intra_refresh=0 / rc_lookahead=60 / rc=2pass / mbtree=0 / bitrate=4000 / ratetol=1.0 / qcomp=0.70 / qpmin=3 / qpmax=69 / qpstep=4 / cplxblur=20.0 / qblur=0.5 / vbv_maxrate=5000 / vbv_bufsize=4000 / nal_hrd=none / filler=0 / ip_ratio=1.40 / pb_ratio=1.30 / aq=1:0.60
Язык : English
Default : Да
Forced : Нет
Цветовой диапазон : Limited
Основные цвета : BT.709
Характеристики трансфера : BT.709
Коэффициенты матрицы : BT.709
Аудио #1
Идентификатор : 2
Формат : AC-3
Формат/Информация : Audio Coding 3
Коммерческое название : Dolby Digital
Идентификатор кодека : A_AC3
Продолжительность : 45 м. 32 с.
Вид битрейта : Постоянный
Битрейт : 448 Кбит/сек
Каналы : 6 каналов
Channel layout : L R C LFE Ls Rs
Частота : 48,0 КГц
Частота кадров : 31,250 кадров/сек (1536 SPF)
Битовая глубина : 32 бит
Метод сжатия : С потерями
Размер потока : 146 Мбайт (9%)
Заголовок : MVO (HDrezka Studio)
Язык : Russian
Service kind : Complete Main
Default : Да
Forced : Нет
Аудио #2
Идентификатор : 3
Формат : AC-3
Формат/Информация : Audio Coding 3
Коммерческое название : Dolby Digital
Идентификатор кодека : A_AC3
Продолжительность : 45 м. 32 с.
Вид битрейта : Постоянный
Битрейт : 448 Кбит/сек
Каналы : 6 каналов
Channel layout : L R C LFE Ls Rs
Частота : 48,0 КГц
Частота кадров : 31,250 кадров/сек (1536 SPF)
Битовая глубина : 32 бит
Метод сжатия : С потерями
Размер потока : 146 Мбайт (9%)
Заголовок : Original (English)
Язык : English
Service kind : Complete Main
Default : Нет
Forced : Нет
Текст #1
Идентификатор : 4
Формат : ASS
Идентификатор кодека : S_TEXT/ASS
Идентификатор кодека/Информация : Advanced Sub Station Alpha
Метод сжатия : Без потерь
Заголовок : Forc
Язык : Russian
Default : Да
Forced : Нет
Текст #2
Идентификатор : 5
Формат : ASS
Идентификатор кодека : S_TEXT/ASS
Идентификатор кодека/Информация : Advanced Sub Station Alpha
Метод сжатия : Без потерь
Заголовок : GTL
Язык : Russian
Default : Нет
Forced : Нет
Текст #3
Идентификатор : 6
Формат : ASS
Идентификатор кодека : S_TEXT/ASS
Идентификатор кодека/Информация : Advanced Sub Station Alpha
Метод сжатия : Без потерь
Заголовок : FOCS
Язык : Russian
Default : Нет
Forced : Нет
Текст #4
Идентификатор : 7
Формат : ASS
Идентификатор кодека : S_TEXT/ASS
Идентификатор кодека/Информация : Advanced Sub Station Alpha
Метод сжатия : Без потерь
Заголовок : English
Язык : English
Default : Нет
Forced : Нет
Текст #5
Идентификатор : 8
Формат : ASS
Идентификатор кодека : S_TEXT/ASS
Идентификатор кодека/Информация : Advanced Sub Station Alpha
Метод сжатия : Без потерь
Заголовок : English [SDH]
Язык : English
Default : Нет
Forced : Нет
ТРЕЙЛЕР
СЭМПЛ
AdGuard VPN - бесплатный, надёжный и быстрый VPN
[korsars.pro].t56960.torrent 
Торрент: Зарегистрирован [ 2022-05-08 21:00 ] · EED089711171378695BDC4425B0A8AE76C3828DC

Скачать .torrent

Размер .torrent файла 26 KB

Статус: проверено
.torrent скачан: 0 раз
Размер: 9,81 GB
Правила

AdGuard VPN - бесплатный, надёжный и быстрый VPN
Похожие темы

Вы не зарегистрированы на нашем сайте. Вам доступна для скачивания только часть контента. Чтобы увидеть весь контент сайта, пожалуйста, зарегистрируйтесь.

Дешевый и быстрый Сидбокс
У Вас отключен VIP статус, поэтому Вам показывается реклама на сайте. Вы можете поддержать наш ресурс и приобрести VIP статус, тем самым отключив показ рекламы на сайте, а ещё VIP пользователи получают 15 инвайтов, которыми можно поделиться с друзьями или знакомыми.
Дешевый и быстрый Сидбокс
AdGuard - Интернет без рекламы и слежки в любом браузере
[Профиль] [ЛС]
Показать сообщения:    
Ответить на тему

Текущее время: 28-Май 05:43

Часовой пояс: UTC + 4



Вы не можете начинать темы
Вы не можете отвечать на сообщения
Вы не можете редактировать свои сообщения
Вы не можете удалять свои сообщения
Вы не можете голосовать в опросах
Вы не можете прикреплять файлы к сообщениям
Вы можете скачивать файлы
Анализ сайта korsars.pro Яндекс.Метрика

Материал для зрителей старше 18 летВсе материалы на сайте получены из свободных источников в сети Интернет и представлены исключительно для личного (некоммерческого) использования лицами старше 18 лет.