Лунный рыцарь / Moon Knight [S01] (2022) WEB-DL 1080p | VHSник

Ответить на тему
Статистика раздачи [Обновить пиров]
Размер:  15,04 GB   |    Зарегистрирован:  2 года   |    .torrent скачан:  2 раза
Раздают:  149  [  0 KB/s  ]   Качают:  212  [  0 KB/s  ]   Подробная статистика пиров
   
 
Автор Сообщение

ExPlayer ®

Оффлайн

Медали


Пол: Мужской

Стаж: 9 лет 6 месяцев

Наличие запрета:

Сообщений: 60281

Откуда: korsars.pro

Отдача: 100 Mb/s

Загрузка: 100 Mb/s



AdGuard VPN - бесплатный, надёжный и быстрый VPN

Создавать темы 04-Май-2022 21:00

[Цитировать]


Информация о фильме
Название: Лунный рыцарь
Оригинальное название: Moon Knight
Год выхода: 2022
Жанр: ужасы, фантастика, фэнтези, боевик, драма, приключения
Режиссер: Джастин Бенсон, Мохамед Диаб, Аарон Мурхед
Сценарий: Джереми Слэйтер, Питер Камерон, Сабир Пирзада
В ролях: Оскар Айзек, Итан Хоук, Мэй Каламау, Гаспар Ульель, Ф. Мюррэй Абрахам, Фернанда Андраде, София Асир, Диана Бермудес, Энн Акин, Рей Лукас и др.
О сериале:
Марк Спектор, наёмник, страдающий диссоциативным расстройством личности, втянут в смертельную тайну, связанную с египетскими богами, вместе со своими множественными личностями, такими как Стивен Грант.

Страна: США
Студия: Marvel Studios, Disney+
Продолжительность: 00:45:32
Перевод: Любительский (одноголосый закадровый) Борис VHSник Страхов
Файл
Качество: WEB-DL 1080p
Контейнер: MKV
Видео: 1920x1080, 24.000 fps, MPEG-4 AVC, 6 260 kb/s
Аудио 1: Russian: AC-3, 48.0 kHz, 2 channels, 320 kb/s
Аудио 2: English: E-AC-3, 48.0 kHz, 6 channels, 768 kb/s
Субтитры: English

Скриншоты



Список серий

01. Проблема золотой рыбки / The Goldfish Problem
02. Призови костюм / Summon the Suit
03. Дружелюбный тип / The Friendly Type
04. Гробница / The Tomb
05. Убежище / Asylum
06. Боги и монстры / Gods and Monsters

Подробные технические данные

General
Unique ID : 309079186490269382240456031058247592419 (0xE8867C6D6F5C80E5883A7862AEE4A9E3)
Complete name : D:2. MovieЛунный Рыцарь - Сезон 1 - VHSникЛунный Рыцарь - Сезон 1, серия 1 - VHSник.mkv
Format : Matroska
Format version : Version 4 / Version 2
File size : 2.34 GiB
Duration : 45 min 32 s
Overall bit rate mode : Variable
Overall bit rate : 7 350 kb/s
Encoded date : UTC 2022-03-30 11:52:18
Writing application : mkvmerge v57.0.0 ('Till The End') 64-bit
Writing library : libebml v1.4.2 + libmatroska v1.6.4
Video
ID : 1
Format : AVC
Format/Info : Advanced Video Codec
Format profile : High@L4
Format settings, CABAC : Yes
Format settings, ReFrames : 4 frames
Codec ID : V_MPEG4/ISO/AVC
Duration : 45 min 32 s
Bit rate mode : Variable
Bit rate : 6 260 kb/s
Maximum bit rate : 12.7 Mb/s
Width : 1 920 pixels
Height : 1 080 pixels
Display aspect ratio : 16:9
Frame rate mode : Constant
Frame rate : 24.000 FPS
Color space : YUV
Chroma subsampling : 4:2:0
Bit depth : 8 bits
Scan type : Progressive
Bits/(Pixel*Frame) : 0.126
Stream size : 1.99 GiB (85%)
Default : Yes
Forced : No
Color range : Limited
Color primaries : BT.709
Transfer characteristics : BT.709
Matrix coefficients : BT.709
Audio #1
ID : 2
Format : AC-3
Format/Info : Audio Coding 3
Mode extension : CM (complete main)
Format settings, Endianness : Big
Codec ID : A_AC3
Duration : 45 min 32 s
Bit rate mode : Constant
Bit rate : 320 kb/s
Channel(s) : 2 channels
Channel positions : Front: L R
Sampling rate : 48.0 kHz
Frame rate : 31.250 FPS (1536 spf)
Bit depth : 16 bits
Compression mode : Lossy
Stream size : 104 MiB (4%)
Title : ВХСник
Language : Russian
Default : Yes
Forced : No
Audio #2
ID : 3
Format : E-AC-3
Format/Info : Enhanced Audio Coding 3
Format settings, Endianness : Big
Codec ID : A_EAC3
Duration : 45 min 32 s
Bit rate mode : Constant
Bit rate : 768 kb/s
Channel(s) : 6 channels
Channel positions : Front: L C R, Side: L R, LFE
Sampling rate : 48.0 kHz
Frame rate : 187.500 FPS (256 spf)
Compression mode : Lossy
Stream size : 250 MiB (10%)
Title : English
Language : English
Default : No
Forced : No
Text
ID : 4
Format : UTF-8
Codec ID : S_TEXT/UTF8
Codec ID/Info : UTF-8 Plain Text
Duration : 41 min 9 s
Bit rate : 58 b/s
Count of elements : 555
Stream size : 17.7 KiB (0%)
Title : English [SDH]
Language : English
Default : No
Forced : No
Другие сериалы Marvel:
*Сокол и Зимний солдат
*Локи
*Что, если...?
*Соколиный глаз
***Реклама отсутствует.
***Озвучка с большой оглядкой на мэтров одноголосых переводов эпохи VHS.
Релиз от:
AdGuard VPN - бесплатный, надёжный и быстрый VPN
[korsars.pro].t56728.torrent 
Торрент: Зарегистрирован [ 2022-05-04 21:00 ] · B416FD009AF6A8BEFFBF60801CECFA43D0936538

Скачать .torrent

Размер .torrent файла 39 KB

Статус: проверено
.torrent скачан: 2 раз
Размер: 15,04 GB
Правила

AdGuard VPN - бесплатный, надёжный и быстрый VPN
Похожие темы

Вы не зарегистрированы на нашем сайте. Вам доступна для скачивания только часть контента. Чтобы увидеть весь контент сайта, пожалуйста, зарегистрируйтесь.

Дешевый и быстрый Сидбокс
У Вас отключен VIP статус, поэтому Вам показывается реклама на сайте. Вы можете поддержать наш ресурс и приобрести VIP статус, тем самым отключив показ рекламы на сайте, а ещё VIP пользователи получают 15 инвайтов, которыми можно поделиться с друзьями или знакомыми.
Дешевый и быстрый Сидбокс
AdGuard - Интернет без рекламы и слежки в любом браузере
[Профиль] [ЛС]
Показать сообщения:    
Ответить на тему

Текущее время: 28-Май 05:15

Часовой пояс: UTC + 4



Вы не можете начинать темы
Вы не можете отвечать на сообщения
Вы не можете редактировать свои сообщения
Вы не можете удалять свои сообщения
Вы не можете голосовать в опросах
Вы не можете прикреплять файлы к сообщениям
Вы можете скачивать файлы
Анализ сайта korsars.pro Яндекс.Метрика

Материал для зрителей старше 18 летВсе материалы на сайте получены из свободных источников в сети Интернет и представлены исключительно для личного (некоммерческого) использования лицами старше 18 лет.