Книга Бобы Фетта / The Book of Boba Fett [S01] (2021) WEB-DL 720p | Flarrow Films

Ответить на тему
Статистика раздачи [Обновить пиров]
Размер:  9,39 GB   |    Зарегистрирован:  1 год 3 месяца   |    .torrent скачан:  10 раз
Раздают:  136  [  0 KB/s  ]   Качают:  59  [  0 KB/s  ]   Подробная статистика пиров
   
 
Автор Сообщение

4udaki ®

Оффлайн

Медали


Пол: Мужской

Стаж: 8 лет 6 месяцев

Наличие запрета:

Сообщений: 41844

Откуда: korsars.pro

Отдача: 100 Mb/s

Загрузка: 100 Mb/s



AdGuard VPN - бесплатный, надёжный и быстрый VPN

Создавать темы 18-Фев-2022 13:00

[Цитировать]

[img]http://a.Radikal больше не существует. Перезалейте изображение на другой хостинг!/a25/2112/54/b1543790e65d.png[/img]
Информация о фильме
Название: Книга Бобы Фетта
Оригинальное название: The Book of Boba Fett
Год выхода: 2021
Жанр: фантастика, боевик, драма, криминал, детектив, приключения
Режиссер: Роберт Родригес, Джон Фавро, Дэйв Филони
В ролях: Темуэра Моррисон, Мин-На Вэнь, Мэтт Берри, Дэвид Паскуэзи, Дженнифер Билз, Уэсли Киммел, Ксавье Джименез, Джоэнна Беннетт, Доун Дининжер, Бэрри Лоуин
О фильме:
Боба Фетт вместе с напарницей Феннек Шанд пытается завоевать авторитет в преступном мире, захватив территорию, когда-то принадлежавшую Джаббе Хатту.



Страна: США
Продолжительность: ~00:38:00 серия
Перевод: Дублированный (любительский) | Flarrow Films
Роли дублировали: Борис Хасанов, Михаил Белякович, Глеб Петров, Дмитрий Лунёв, Рина Чернышова, Алексей Гнеушев, Александр Карпов, Лена Лунина, Анастасия Козлова, Виктор Дарк, Татьяна Тарасова, Рустам Шайхиев и Ахилл Намазов.
Официальные голоса: Бобы Фетта, Мачете, Клонов и Люка Скайуокера.
Файл
Качество: WEB-DL 720p Сэмпл
Формат: MKV
Видео: MPEG-4 AVC, 1280x720 (16:9), 24,000 кадра/сек, ~3,2 Мбит/сек
Аудио 1: Дубляж (Flarrow Films): AC3, 48 kHz, 2 (L R) ch, 320 kbps
Аудио 2: Оригинал: E-AC3 JOC, 48 kHz, 3/2 (L R C LFE Ls Rs) ch, 768 kbps
Субтитры: Русские (Forced, Full), английские (Full)
Релиз от: TwoKDot

MediaInfo

General
Unique ID : 205734830488278302077424447726013602886 (0x9AC71649D4E35C143B79A689CE975C46)
Complete name : D:ВидеоСериалыThe Book of Boba Fett_720pThe Book of Boba Fett E01 Незнакомец в чужой стране.mkv
Format : Matroska
Format version : Version 4
File size : 1.14 GiB
Duration : 37 min 40 s
Overall bit rate mode : Variable
Overall bit rate : 4 323 kb/s
Encoded date : UTC 2022-01-01 14:54:07
Writing application : mkvmerge v64.0.0 ('Willows') 64-bit
Writing library : libebml v1.4.2 + libmatroska v1.6.4
Video
ID : 1
Format : AVC
Format/Info : Advanced Video Codec
Format profile : High@L3.1
Format settings : CABAC / 4 Ref Frames
Format settings, CABAC : Yes
Format settings, Reference : 4 frames
Codec ID : V_MPEG4/ISO/AVC
Duration : 37 min 40 s
Bit rate mode : Variable
Bit rate : 3 233 kb/s
Maximum bit rate : 6 375 kb/s
Width : 1 280 pixels
Height : 720 pixels
Display aspect ratio : 16:9
Frame rate mode : Constant
Frame rate : 24.000 FPS
Color space : YUV
Chroma subsampling : 4:2:0
Bit depth : 8 bits
Scan type : Progressive
Bits/(Pixel*Frame) : 0.146
Stream size : 871 MiB (75%)
Title : Незнакомец в чужой стране
Language : English
Default : Yes
Forced : No
Color range : Limited
Color primaries : BT.709
Transfer characteristics : BT.709
Matrix coefficients : BT.709
Audio #1
ID : 2
Format : AC-3
Format/Info : Audio Coding 3
Commercial name : Dolby Digital
Codec ID : A_AC3
Duration : 37 min 40 s
Bit rate mode : Constant
Bit rate : 320 kb/s
Channel(s) : 2 channels
Channel layout : L R
Sampling rate : 48.0 kHz
Frame rate : 31.250 FPS (1536 SPF)
Compression mode : Lossy
Stream size : 86.2 MiB (7%)
Title : Дубляж (Flarrow Films)
Language : Russian
Service kind : Complete Main
Default : Yes
Forced : No
Audio #2
ID : 3
Format : E-AC-3 JOC
Format/Info : Enhanced AC-3 with Joint Object Coding
Commercial name : Dolby Digital Plus with Dolby Atmos
Codec ID : A_EAC3
Duration : 37 min 40 s
Bit rate mode : Constant
Bit rate : 768 kb/s
Channel(s) : 6 channels
Channel layout : L R C LFE Ls Rs
Sampling rate : 48.0 kHz
Frame rate : 31.250 FPS (1536 SPF)
Compression mode : Lossy
Stream size : 207 MiB (18%)
Language : English
Service kind : Complete Main
Default : No
Forced : No
Complexity index : 16
Number of dynamic objects : 15
Bed channel count : 1 channel
Bed channel configuration : LFE
Text #1
ID : 4
Format : UTF-8
Codec ID : S_TEXT/UTF8
Codec ID/Info : UTF-8 Plain Text
Duration : 28 min 9 s
Bit rate : 0 b/s
Count of elements : 2
Stream size : 155 Bytes (0%)
Title : Форсированные
Language : Russian
Default : Yes
Forced : No
Text #2
ID : 5
Format : UTF-8
Codec ID : S_TEXT/UTF8
Codec ID/Info : UTF-8 Plain Text
Duration : 28 min 30 s
Bit rate : 37 b/s
Count of elements : 135
Stream size : 7.83 KiB (0%)
Title : Полные
Language : Russian
Default : No
Forced : No
Text #3
ID : 6
Format : UTF-8
Codec ID : S_TEXT/UTF8
Codec ID/Info : UTF-8 Plain Text
Duration : 28 min 30 s
Bit rate : 22 b/s
Count of elements : 133
Stream size : 4.60 KiB (0%)
Title : Полные
Language : English
Default : No
Forced : No

Список серий

E01 Незнакомец в чужой стране
E02 Племена Татуина
E03 Улицы Мос Эспы
E04 Надвигается буря
E05 Возвращение мандалорца
E06 Из пустынь явился странник
E07 Во имя чести

Скриншоты

AdGuard VPN - бесплатный, надёжный и быстрый VPN
[korsars.pro].t52626.torrent 
Торрент: Зарегистрирован [ 2022-02-18 13:00 ] · 56BE1032FAD18A5D7B3DE2473948B9AA62F05E9D

Скачать .torrent

Размер .torrent файла 25 KB

Статус: проверено
.torrent скачан: 10 раз
Размер: 9,39 GB
Правила
Jordan7(19-Фев-22)
AdGuard VPN - бесплатный, надёжный и быстрый VPN
Похожие темы

Вы не зарегистрированы на нашем сайте. Вам доступна для скачивания только часть контента. Чтобы увидеть весь контент сайта, пожалуйста, зарегистрируйтесь.

Дешевый и быстрый Сидбокс
У Вас отключен VIP статус, поэтому Вам показывается реклама на сайте. Вы можете поддержать наш ресурс и приобрести VIP статус, тем самым отключив показ рекламы на сайте, а ещё VIP пользователи получают 15 инвайтов, которыми можно поделиться с друзьями или знакомыми.
Дешевый и быстрый Сидбокс
[Профиль] [ЛС]
Показать сообщения:    
Ответить на тему

Текущее время: 30-Май 07:40

Часовой пояс: UTC + 4



Вы не можете начинать темы
Вы не можете отвечать на сообщения
Вы не можете редактировать свои сообщения
Вы не можете удалять свои сообщения
Вы не можете голосовать в опросах
Вы не можете прикреплять файлы к сообщениям
Вы можете скачивать файлы
Анализ сайта korsars.pro Яндекс.Метрика