Сокол и Зимний солдат / The Falcon and the Winter Soldier [S01] (2021) WEB-DL-HEVC 2160p | 4K | HDR | Flarrow Films

Ответить на тему
Статистика раздачи [Обновить пиров]
Размер:  47,9 GB   |    Зарегистрирован:  2 года 4 месяца   |    .torrent скачан:  1 раз
Раздают:  31  [  0 KB/s  ]   Качают:  10  [  0 KB/s  ]   Подробная статистика пиров
   
 
Автор Сообщение

ExPlayer ®

Оффлайн

Медали


Пол: Мужской

Стаж: 9 лет 6 месяцев

Наличие запрета:

Сообщений: 60281

Откуда: korsars.pro

Отдача: 100 Mb/s

Загрузка: 100 Mb/s



AdGuard VPN - бесплатный, надёжный и быстрый VPN

Создавать темы 09-Янв-2022 17:00

[Цитировать]

[img]http://c.Radikal больше не существует. Перезалейте изображение на другой хостинг!/c14/2103/da/c407f2efc092.png[/img]
Информация о фильме
Название: Сокол и Зимний Солдат
Оригинальное название: The Falcon and the Winter Soldier
Год выхода: 2021
Жанр: фантастика, боевик, драма, приключения
Режиссер: Кари Скогланд
В ролях: Себастиан Стэн, Энтони Маки, Эмили ВанКэмп, Даниэль Брюль, Эрин Келлиман, Эдеперо Одуйе, Десмонд Чайм, Уайатт Рассел, Джон Геттье, Мики Исикава
О фильме:
Сэм Уилсон примерит костюм нового Капитана Америка и попытается справиться с миссией, возложенной на него Стивом Роджерсом. Баки, в свою очередь, готов вновь стать частью общества и поближе познакомиться со всем, что предлагает современный мир.



Страна: США
Продолжительность: ~00:50:00 серия
Перевод: Дублированный (любительский) | Flarrow Films
Роли дублировали: Ахилл Намазов, Денис Кузьмичёв, Даниил Эльдаров, Дмитрий Лунёв, Алёна Соколова, Семён Евсиков, Алена Козлова, Алина Лихачева, Рута Новикова, Дмитрий Бугаков, Алексей Ядренников, Алексей Щегорский, Данила Глухов, Виталий Кашеваров
Файл
Качество: WEB-DL 2160p Сэмпл
Формат: MKV
Видео: MPEG-H HEVC, 3840x2160 (16:9), 24.000 кадра/сек, ~21.6 Мбит/сек
Аудио 1: Дубляж (Flarrow Films): AC3, 48 kHz, 2 (L R) ch, 320 kbps
Аудио 2: Оригинал: E-AC3 JOC, 48 kHz, 3/2 (L R C LFE Ls Rs) ch, 768 kbps
Субтитры: Русские (Forced, Full), английские (Full)
Релиз от: TwoKDot

MediaInfo

General
Unique ID : 330326540503128569593122525174595279967 (0xF88293DC283C6591A2EB00E92C0F5C5F)
Complete name : D:ВидеоСериалыСокол и Зимний СолдатСокол и Зимний Солдат E01 Новый мировой порядок.mkv
Format : Matroska
Format version : Version 4
File size : 7.49 GiB
Duration : 47 min 16 s
Overall bit rate : 22.7 Mb/s
Encoded date : UTC 2022-01-07 18:48:02
Writing application : mkvmerge v64.0.0 ('Willows') 64-bit
Writing library : libebml v1.4.2 + libmatroska v1.6.4
Video
ID : 1
Format : HEVC
Format/Info : High Efficiency Video Coding
Format profile : Main 10@L5@Main
Codec ID : V_MPEGH/ISO/HEVC
Duration : 47 min 15 s
Bit rate : 21.6 Mb/s
Width : 3 840 pixels
Height : 2 160 pixels
Display aspect ratio : 16:9
Frame rate mode : Constant
Frame rate : 24.000 FPS
Color space : YUV
Chroma subsampling : 4:2:0
Bit depth : 10 bits
Bits/(Pixel*Frame) : 0.108
Stream size : 7.13 GiB (95%)
Title : Новый мировой порядок
Writing library : x265 3.5_RC2:[Linux][GCC 7.5.0][64 bit] 10bit
Encoding settings : cpuid=1111039 / frame-threads=1 / wpp / no-pmode / no-pme / no-psnr / no-ssim / log-level=2 / input-csp=1 / input-res=3840x2160 / interlace=0 / total-frames=0 / level-idc=50 / high-tier=0 / uhd-bd=0 / ref=3 / no-allow-non-conformance / repeat-headers / annexb / no-aud / no-hrd / info / hash=0 / no-temporal-layers / no-open-gop / min-keyint=48 / keyint=48 / gop-lookahead=0 / bframes=2 / b-adapt=0 / b-pyramid / bframe-bias=0 / rc-lookahead=48 / lookahead-slices=8 / scenecut=0 / hist-scenecut=0 / radl=0 / splice / no-intra-refresh / ctu=32 / min-cu-size=8 / no-rect / no-amp / max-tu-size=16 / tu-inter-depth=2 / tu-intra-depth=2 / limit-tu=0 / rdoq-level=1 / dynamic-rd=0.00 / no-ssim-rd / signhide / no-tskip / nr-intra=0 / nr-inter=0 / no-constrained-intra / no-strong-intra-smoothing / max-merge=3 / limit-refs=1 / no-limit-modes / me=1 / subme=2 / merange=44 / temporal-mvp / no-frame-dup / no-hme / weightp / no-weightb / no-analyze-src-pics / deblock=0:0 / no-sao / no-sao-non-deblock / rd=4 / selective-sao=0 / early-skip / rskip / no-fast-intra / no-tskip-fast / no-cu-lossless / b-intra / no-splitrd-skip / rdpenalty=1 / psy-rd=1.60 / psy-rdoq=5.00 / no-rd-refine / no-lossless / cbqpoffs=0 / crqpoffs=0 / rc=abr / bitrate=23000 / qcomp=0.75 / qpstep=4 / stats-write=0 / stats-read=0 / vbv-maxrate=25000 / vbv-bufsize=25000 / vbv-init=0.9 / ipratio=1.40 / pbratio=1.30 / aq-mode=3 / aq-strength=1.00 / no-cutree / zone-count=0 / no-strict-cbr / qg-size=32 / no-rc-grain / qpmax=69 / qpmin=0 / no-const-vbv / sar=1 / overscan=0 / videoformat=5 / range=0 / colorprim=9 / transfer=16 / colormatrix=9 / chromaloc=0 / display-window=0 / cll=0,0 / min-luma=0 / max-luma=1023 / log2-max-poc-lsb=8 / vui-timing-info / vui-hrd-info / slices=1 / no-opt-qp-pps / no-opt-ref-list-length-pps / no-multi-pass-opt-rps / scenecut-bias=0.00 / hist-threshold=0.01 / no-opt-cu-delta-qp / no-aq-motion / no-hdr10 / hdr10-opt / no-dhdr10-opt / no-idr-recovery-sei / analysis-reuse-level=0 / analysis-save-reuse-level=0 / analysis-load-reuse-level=0 / scale-factor=0 / refine-intra=0 / refine-inter=0 / refine-mv=1 / refine-ctu-distortion=0 / no-limit-sao / ctu-info=0 / no-lowpass-dct / refine-analysis-type=0 / copy-pic=1 / max-ausize-factor=1.0 / no-dynamic-refine / no-single-sei / no-hevc-aq / no-svt / no-field / qp-adaptation-range=1.00 / no-scenecut-aware-qpconformance-window-offsets / right=0 / bottom=0
Language : English
Default : Yes
Forced : No
Color range : Limited
Color primaries : BT.2020
Transfer characteristics : PQ
Matrix coefficients : BT.2020 non-constant
Audio #1
ID : 2
Format : AC-3
Format/Info : Audio Coding 3
Commercial name : Dolby Digital
Codec ID : A_AC3
Duration : 47 min 16 s
Bit rate mode : Constant
Bit rate : 320 kb/s
Channel(s) : 2 channels
Channel layout : L R
Sampling rate : 48.0 kHz
Frame rate : 31.250 FPS (1536 SPF)
Compression mode : Lossy
Stream size : 108 MiB (1%)
Title : Дубляж (Flarrow Films)
Language : Russian
Service kind : Complete Main
Default : Yes
Forced : No
Audio #2
ID : 3
Format : E-AC-3 JOC
Format/Info : Enhanced AC-3 with Joint Object Coding
Commercial name : Dolby Digital Plus with Dolby Atmos
Codec ID : A_EAC3
Duration : 47 min 15 s
Bit rate mode : Constant
Bit rate : 768 kb/s
Channel(s) : 6 channels
Channel layout : L R C LFE Ls Rs
Sampling rate : 48.0 kHz
Frame rate : 31.250 FPS (1536 SPF)
Compression mode : Lossy
Stream size : 260 MiB (3%)
Title : Оригинал
Language : English
Service kind : Complete Main
Default : No
Forced : No
Complexity index : 16
Number of dynamic objects : 15
Bed channel count : 1 channel
Bed channel configuration : LFE
Text #1
ID : 4
Format : UTF-8
Codec ID : S_TEXT/UTF8
Codec ID/Info : UTF-8 Plain Text
Duration : 38 min 47 s
Bit rate : 1 b/s
Count of elements : 10
Stream size : 509 Bytes (0%)
Title : Форсированные
Language : Russian
Default : Yes
Forced : No
Text #2
ID : 5
Format : UTF-8
Codec ID : S_TEXT/UTF8
Codec ID/Info : UTF-8 Plain Text
Duration : 40 min 44 s
Bit rate : 106 b/s
Count of elements : 559
Stream size : 31.6 KiB (0%)
Title : Полные
Language : Russian
Default : No
Forced : No
Text #3
ID : 6
Format : UTF-8
Codec ID : S_TEXT/UTF8
Codec ID/Info : UTF-8 Plain Text
Duration : 42 min 35 s
Bit rate : 66 b/s
Count of elements : 674
Stream size : 20.9 KiB (0%)
Title : Полные
Language : English
Default : No
Forced : No

Список серий

E01 Новый мировой порядок
E02 Человек в звёздно-полосатом
E03 Торговец силой
E04 Весь мир смотрит
E05 Правда
E06 Один мир, один народ

Скриншоты

AdGuard VPN - бесплатный, надёжный и быстрый VPN
[korsars.pro].t50358.torrent 
Торрент: Зарегистрирован [ 2022-01-09 17:00 ] · D535FA5CBAB1C3CA78A71FD2DAAB11AB9D83A9A8

Скачать .torrent

Размер .torrent файла 121 KB

Статус: проверено
.torrent скачан: 1 раз
Размер: 47,9 GB
Правила

AdGuard VPN - бесплатный, надёжный и быстрый VPN
Похожие темы

Вы не зарегистрированы на нашем сайте. Вам доступна для скачивания только часть контента. Чтобы увидеть весь контент сайта, пожалуйста, зарегистрируйтесь.

Дешевый и быстрый Сидбокс
У Вас отключен VIP статус, поэтому Вам показывается реклама на сайте. Вы можете поддержать наш ресурс и приобрести VIP статус, тем самым отключив показ рекламы на сайте, а ещё VIP пользователи получают 15 инвайтов, которыми можно поделиться с друзьями или знакомыми.
Дешевый и быстрый Сидбокс
AdGuard - Интернет без рекламы и слежки в любом браузере
[Профиль] [ЛС]
Показать сообщения:    
Ответить на тему

Текущее время: 28-Май 05:28

Часовой пояс: UTC + 4



Вы не можете начинать темы
Вы не можете отвечать на сообщения
Вы не можете редактировать свои сообщения
Вы не можете удалять свои сообщения
Вы не можете голосовать в опросах
Вы не можете прикреплять файлы к сообщениям
Вы можете скачивать файлы
Анализ сайта korsars.pro Яндекс.Метрика

Материал для зрителей старше 18 летВсе материалы на сайте получены из свободных источников в сети Интернет и представлены исключительно для личного (некоммерческого) использования лицами старше 18 лет.