Соколиный Глаз / Hawkeye [S01] (2021) WEB-DL HEVC 1080p | HDrezka Studio

Ответить на тему
Статистика раздачи [Обновить пиров]
Размер:  10,19 GB   |    Зарегистрирован:  2 года 3 месяца   |    .torrent скачан:  27 раз
Раздают:  156  [  0 KB/s  ]   Качают:  32  [  0 KB/s  ]   Подробная статистика пиров
   
 
Автор Сообщение

ExPlayer ®

Оффлайн

Медали


Пол: Мужской

Стаж: 9 лет 6 месяцев

Наличие запрета:

Сообщений: 60281

Откуда: korsars.pro

Отдача: 100 Mb/s

Загрузка: 100 Mb/s



AdGuard VPN - бесплатный, надёжный и быстрый VPN

Создавать темы 26-Ноя-2021 17:11

[Цитировать]

Информация о фильме
Название: Соколиный Глаз
Оригинальное название: Hawkeye
Год выхода: 2021
Жанр: фантастика, боевик, драма, криминал, детектив, приключения
Режиссер: Берт, Кэти Эллвуд, Риз Томас
В ролях: Джереми Реннер, Хейли Стайнфелд, Тони Далтон, Вера Фармига, Линда Карделлини, Алаква Кокс, Алекс Паунович, Фра Фи, Ава Руссо, Петр Адамчик
О фильме: Соколиный Глаз готов уйти на покой, но сперва он должен найти себе подходящую замену, поэтому начинает тренировать нового Соколиного Глаза — молодую Кейт Бишоп. Бартон должен научить Кейт, как быть супергероем без суперспособностей и спасать людей, полагаясь исключительно на свои навыки, смекалку и меткость.

Страна: США
Студия: Disney+, Marvel Studios Inc., Walt Disney Pictures
Продолжительность: ~00:47:00 серия
Перевод: Профессиональный (многоголосый, закадровый) HDrezka Studio
Файл
Качество: WEB-DL 1080p
Формат: HEVC
Видео: 1920x804 at 24.000 fps, MPEG4-AVC, ~ 4000 kbps avg, 10 bit
Аудио#1: Russian: AC3, 6 ch, 448 Кбит/с |Многоголосый закадровый, HDrezka Studio|
Аудио#2: English: E-AC3+Atmos, 6 ch, 768 Кбит/с
Субтитры: Русские, английские
***Примечание: Без рекламы

MediaInfo

General
Unique ID : 217597167594193913272830036574863781900 (0xA3B3B0A9A15124FCB38822993F36700C)
Complete name : K:\Hawkeye.S01.DSNP.WEB-DL.1080p.HEVC\Hawkeye.S01E01.DSNP.WEB-DL.1080p.HEVC.10bit.mkv
Format : Matroska
Format version : Version 4 / Version 2
File size : 1.73 GiB
Duration : 47 min 24 s
Overall bit rate : 5 228 kb/s
Movie name : Hawkeye.S01E01.DSNP.WEB-DL.1080p.HEVC.10bit
Encoded date : UTC 2021-12-23 16:36:11
Writing application : mkvmerge v8.0.0 ('Til The Day That I Die') 64bit
Writing library : libebml v1.3.1 + libmatroska v1.4.2
Video
ID : 1
Format : HEVC
Format/Info : High Efficiency Video Coding
Format profile : Main 10@L4@Main
Codec ID : V_MPEGH/ISO/HEVC
Duration : 47 min 24 s
Bit rate : 4 010 kb/s
Width : 1 920 pixels
Height : 804 pixels
Display aspect ratio : 2.40:1
Frame rate mode : Constant
Frame rate : 24.000 FPS
Color space : YUV
Chroma subsampling : 4:2:0
Bit depth : 10 bits
Bits/(Pixel*Frame) : 0.108
Stream size : 1.33 GiB (77%)
Title : Hawkeye.S01E01
Writing library : x265 3.5+20-4c4aee0bc:[DJATOM's Mod][Windows][GCC 10.2.1][64 bit] 10bit
Encoding settings : cpuid=1111039 / frame-threads=4 / numa-pools=24 / wpp / no-pmode / no-pme / no-psnr / no-ssim / log-level=2 / input-csp=1 / input-res=1920x804 / interlace=0 / total-frames=68260 / level-idc=0 / high-tier=1 / uhd-bd=0 / ref=5 / no-allow-non-conformance / no-repeat-headers / annexb / no-aud / no-hrd / info / hash=0 / no-temporal-layers / open-gop / min-keyint=24 / keyint=250 / gop-lookahead=0 / bframes=8 / b-adapt=2 / b-pyramid / bframe-bias=0 / rc-lookahead=80 / lookahead-slices=4 / scenecut=40 / hist-scenecut=0 / radl=0 / no-splice / no-intra-refresh / ctu=64 / min-cu-size=8 / no-rect / no-amp / max-tu-size=32 / tu-inter-depth=1 / tu-intra-depth=1 / limit-tu=0 / rdoq-level=2 / dynamic-rd=0.00 / no-ssim-rd / signhide / no-tskip / nr-intra=0 / nr-inter=0 / no-constrained-intra / no-strong-intra-smoothing / max-merge=3 / limit-refs=3 / limit-modes / me=3 / subme=5 / merange=57 / temporal-mvp / no-frame-dup / no-hme / weightp / no-weightb / no-analyze-src-pics / deblock=-3:-3 / no-sao / no-sao-non-deblock / rd=4 / selective-sao=0 / no-early-skip / rskip / no-fast-intra / no-tskip-fast / no-cu-lossless / no-b-intra / no-splitrd-skip / rdpenalty=0 / psy-rd=2.00 / psy-rdoq=1.00 / no-rd-refine / no-lossless / cbqpoffs=0 / crqpoffs=0 / rc=abr / bitrate=4000 / qcomp=0.60 / qpstep=4 / stats-write=0 / stats-read=2 / cplxblur=20.0 / qblur=0.5 / ipratio=1.40 / pbratio=1.30 / aq-mode=3 / aq-strength=1.00 / cutree / zone-count=0 / no-strict-cbr / qg-size=32 / no-rc-grain / qpmax=69 / qpmin=0 / no-const-vbv / sar=0 / overscan=0 / videoformat=5 / range=0 / colorprim=1 / transfer=1 / colormatrix=1 / chromaloc=0 / display-window=0 / cll=0,0 / min-luma=0 / max-luma=1023 / log2-max-poc-lsb=8 / vui-timing-info / vui-hrd-info / slices=1 / no-opt-qp-pps / no-opt-ref-list-length-pps / no-multi-pass-opt-rps / scenecut-bias=0.05 / hist-threshold=0.03 / no-opt-cu-delta-qp / no-aq-motion / no-hdr10 / no-hdr10-opt / no-dhdr10-opt / no-idr-recovery-sei / analysis-reuse-level=0 / analysis-save-reuse-level=0 / analysis-load-reuse-level=0 / scale-factor=0 / refine-intra=0 / refine-inter=0 / refine-mv=1 / refine-ctu-distortion=0 / no-limit-sao / ctu-info=0 / no-lowpass-dct / refine-analysis-type=0 / copy-pic=1 / max-ausize-factor=1.0 / no-dynamic-refine / no-single-sei / no-hevc-aq / no-svt / no-field / qp-adaptation-range=1.00 / scenecut-aware-qp=0conformance-window-offsets / right=0 / bottom=0 / decoder-max-rate=0 / no-vbv-live-multi-pass
Language : English
Default : Yes
Forced : No
Color range : Limited
Color primaries : BT.709
Transfer characteristics : BT.709
Matrix coefficients : BT.709
Audio #1
ID : 2
Format : AC-3
Format/Info : Audio Coding 3
Format settings, Endianness : Big
Codec ID : A_AC3
Duration : 47 min 24 s
Bit rate mode : Constant
Bit rate : 448 kb/s
Channel(s) : 6 channels
Channel positions : Front: L C R, Side: L R, LFE
Sampling rate : 48.0 kHz
Frame rate : 31.250 FPS (1536 SPF)
Bit depth : 16 bits
Compression mode : Lossy
Stream size : 152 MiB (9%)
Title : HDRezka Studio
Language : Russian
Service kind : Complete Main
Default : Yes
Forced : No
Audio #2
ID : 3
Format : E-AC-3
Format/Info : Enhanced Audio Coding 3
Format profile : E-AC-3+Atmos / E-AC-3
Format settings, Endianness : Big
Codec ID : A_EAC3
Duration : 47 min 24 s
Bit rate mode : Constant
Bit rate : 768 kb/s
Channel(s) : 15 objects / 6 channels
Channel positions : 15 objects / Front: L C R, Side: L R, LFE
Sampling rate : 48.0 kHz
Frame rate : 187.500 FPS (256 SPF)
Compression mode : Lossy
Stream size : 260 MiB (15%)
Title : Original
Language : English
Service kind : Complete Main
Default : No
Forced : No
Text #1
ID : 4
Format : UTF-8
Codec ID : S_TEXT/UTF8
Codec ID/Info : UTF-8 Plain Text
Duration : 33 min 21 s
Bit rate : 10 b/s
Count of elements : 43
Stream size : 2.52 KiB (0%)
Title : Forced
Language : Russian
Default : Yes
Forced : No
Text #2
ID : 5
Format : UTF-8
Codec ID : S_TEXT/UTF8
Codec ID/Info : UTF-8 Plain Text
Duration : 44 min 17 s
Bit rate : 76 b/s
Count of elements : 494
Stream size : 24.8 KiB (0%)
Title : Full
Language : Russian
Default : No
Forced : No
Text #3
ID : 6
Format : UTF-8
Codec ID : S_TEXT/UTF8
Codec ID/Info : UTF-8 Plain Text
Duration : 43 min 58 s
Bit rate : 47 b/s
Count of elements : 492
Stream size : 15.4 KiB (0%)
Title : Full
Language : English
Default : No
Forced : No
Text #4
ID : 7
Format : UTF-8
Codec ID : S_TEXT/UTF8
Codec ID/Info : UTF-8 Plain Text
Duration : 44 min 51 s
Bit rate : 60 b/s
Count of elements : 632
Stream size : 20.0 KiB (0%)
Title : SDH
Language : English
Default : No
Forced : No

Раздача ведется путем добавления новых серий

Когда раздача ведётся путём добавления новых серий, при каждом добавлении создётся новый торрент. Чтобы начать докачку новой серии, пользователям необходимо сделать следующее:
(1) остановить скачивание,
(2) удалить старый торрент у себя из клиента (старые серии удалять не надо),
(3) скачать новый торрент и запустить его у себя в клиенте вместо старого, при этом указать клиенту путь в старую папку, куда и должно происходить скачивание новых серий.
Ваш клиент при этом должен произвести хеширование (проверку) старой папки (если не производит сам - помогите ему сделать это), и будет докачивать только те серии, которых у вас ещё нет. Старые серии при этом не удаляются, а продолжают раздаваться!
Eсли вы уже удалили старые серии, то предотвратить повторную закачку старых серий можно, отжав галочку в соответствующих местах при запуске нового торрента. По возможности, желательно не удалять старые серии как можно дольше, чтобы релизер не столько продолжал раздавать старые серии, а смог сконцентрироваться на новых.
--Обновлено. Замена на HEVC. Все 6 серий.
AdGuard VPN - бесплатный, надёжный и быстрый VPN
[korsars.pro].t48895.torrent 
Торрент: Зарегистрирован [ 2022-02-06 19:05 ] · 0C4A17CC6E5A5DAF7FC7B77A90BB911454898C10

Скачать .torrent

Размер .torrent файла 205 KB

Статус: проверено
.torrent скачан: 27 раз
Размер: 10,19 GB
Правила

AdGuard VPN - бесплатный, надёжный и быстрый VPN
Похожие темы

Вы не зарегистрированы на нашем сайте. Вам доступна для скачивания только часть контента. Чтобы увидеть весь контент сайта, пожалуйста, зарегистрируйтесь.

Дешевый и быстрый Сидбокс
У Вас отключен VIP статус, поэтому Вам показывается реклама на сайте. Вы можете поддержать наш ресурс и приобрести VIP статус, тем самым отключив показ рекламы на сайте, а ещё VIP пользователи получают 15 инвайтов, которыми можно поделиться с друзьями или знакомыми.
Дешевый и быстрый Сидбокс
AdGuard - Интернет без рекламы и слежки в любом браузере


Последний раз редактировалось: ExPlayer (2022-02-06 19:05), всего редактировалось 2 раз(а)
[Профиль] [ЛС]

MrStarscream

Оффлайн

Медали
VIPАктивный раздающий 1Активный раздающий 2Ни дня без новостей
ТОП-10


Пол: Мужской

Стаж: 9 лет 3 месяца

Наличие запрета:

Сообщений: 186

Откуда: korsars.pro

Отдача: 100 Mb/s

Загрузка: 100 Mb/s



AdGuard VPN - бесплатный, надёжный и быстрый VPN

Создавать темы 04-Янв-2022 20:05 (спустя 1 месяц 8 дней)

[Цитировать]

Обновление будет?)
AdGuard VPN - бесплатный, надёжный и быстрый VPN
[Профиль] [ЛС]
Показать сообщения:    
Ответить на тему

Текущее время: 28-Май 05:52

Часовой пояс: UTC + 4



Вы не можете начинать темы
Вы не можете отвечать на сообщения
Вы не можете редактировать свои сообщения
Вы не можете удалять свои сообщения
Вы не можете голосовать в опросах
Вы не можете прикреплять файлы к сообщениям
Вы можете скачивать файлы
Анализ сайта korsars.pro Яндекс.Метрика

Материал для зрителей старше 18 летВсе материалы на сайте получены из свободных источников в сети Интернет и представлены исключительно для личного (некоммерческого) использования лицами старше 18 лет.