Видеть / See [S01] (2019) WEB-DL-HEVC 2160p | HDR | LostFilm, TVShows, NewStudio

Ответить на тему
Статистика раздачи [Обновить пиров]
Размер:  77,59 GB   |    Зарегистрирован:  3 года   |    .torrent скачан:  4 раза
Раздают:  17  [  0 KB/s  ]   Качают:  9  [  0 KB/s  ]   Подробная статистика пиров
   
 
Автор Сообщение

4udaki ®

Онлайн

Медали


Пол: Мужской

Стаж: 9 лет 5 месяцев

Наличие запрета:

Сообщений: 58875

Откуда: korsars.pro

Отдача: 100 Mb/s

Загрузка: 100 Mb/s



AdGuard VPN - бесплатный, надёжный и быстрый VPN

Создавать темы 05-Апр-2021 09:00

[Цитировать]

[img=right]https://d.Radikal больше не существует. Перезалейте изображение на другой хостинг!/d20/2003/90/ffd6a76f459a.jpg[/img]
Информация о фильме
Название: Видеть
Оригинальное название: See
Год выхода: 2019
Жанр: фантастика, боевик, драма
Режиссер: Френсис Лоуренс, Андерс Энгстрем, Салли Ричардсон-Уитфилд
В ролях: Джейсон Момоа, Сильвия Хукс, Хера Хильмар, Кристиан Камарго, Арчи Мадекве, Неста Купер, Ядира Гевара-Прип, Элфри Вудард, Джош Блэкер, Кристиан Слоун
О фильме:
В далёком будущем человеческая раса полностью лишилась зрения. Чтобы выжить, людям пришлось найти новый способ сосуществовать, строить и добывать пищу. Всё меняется, когда в семье бесстрашного воина Бабы Восса рождаются зрячие близнецы. Их появление рискует нарушить хрупкий баланс нового мира и ввергнуть успокоившуюся цивилизацию в хаос.

Страна: США
Студия: Chernin Entertainment, Endeavor Content
Продолжительность: 8 x ~ 00:52:00
Перевод: Профессиональный многоголосый, закадровый
Файл
Кодек: H.265
Качество: WEB-DL-HEVC 2160p
Видео: MPEG-H HEVC HDR, ~ 24.1 Mбит/с, 3840x1820p, 23.976 кадр/с
Звук:
Английский: 48 kHz, E-AC3 Atmos, 5.1 ch, 768 Kbps
Русский: 48 kHz, AC3, 5.1 ch, 384 Kbps / Многоголосый закадровый, LostFilm
Русский: 48 kHz, AC3, 5.1 ch, 384 Kbps / Многоголосый закадровый, TVShows
Русский: 48 kHz, AC3, 5.1 ch, 384 Kbps / Многоголосый закадровый, NewStudio
Субтитры: Английские (full,SDH), русские (full), украинские (full)-[thumb]https://c.Radikal больше не существует. Перезалейте изображение на другой хостинг!/c35/2003/4b/7397c2a5b484.png[/thumb][thumb]https://d.Radikal больше не существует. Перезалейте изображение на другой хостинг!/d01/2003/73/937d05d607df.png[/thumb][thumb]https://d.Radikal больше не существует. Перезалейте изображение на другой хостинг!/d30/2003/25/0a622b0247f6.png[/thumb][thumb]https://b.Radikal больше не существует. Перезалейте изображение на другой хостинг!/b38/2003/9f/98fc1e3cafaa.png[/thumb]-

MI

General
Unique ID : 297437074659818709190517420928063397852 (0xDFC44BFF6621772ACEA1C15DAFEA5FDC)
Complete name : C:KINOSee.S01.2019.WEB-DL.2160p.HDR.by SilverokSee.S01E01.2019.WEB-DL.2160p.HDR.by Silverok.mkv
Format : Matroska
Format version : Version 4
File size : 10.4 GiB
Duration : 57 min 30 s
Overall bit rate : 25.9 Mb/s
Movie name : See.S01E01.2019.WEB-DL.2160p.HDR.by Silverok
Encoded date : UTC 2020-02-29 16:58:09
Writing application : mkvmerge v43.0.0 ('The Quartermaster') 64-bit
Writing library : libebml v1.3.10 + libmatroska v1.5.2
Cover : Yes
Attachments : cover.png
Video
ID : 1
Format : HEVC
Format/Info : High Efficiency Video Coding
Format profile : Main 10@L5@High
HDR format : SMPTE ST 2086, HDR10 compatible
Codec ID : V_MPEGH/ISO/HEVC
Duration : 57 min 30 s
Bit rate : 24.0 Mb/s
Width : 3 840 pixels
Height : 1 820 pixels
Display aspect ratio : 2.110
Frame rate mode : Constant
Frame rate : 23.976 (24000/1001) FPS
Color space : YUV
Chroma subsampling : 4:2:0 (Type 2)
Bit depth : 10 bits
Bits/(Pixel*Frame) : 0.143
Stream size : 9.64 GiB (93%)
Title : WEB-DL.2160p.HDR.by Silverok
Language : English
Default : Yes
Forced : No
Color range : Limited
Color primaries : BT.2020
Transfer characteristics : PQ
Matrix coefficients : BT.2020 non-constant
Mastering display color primaries : Display P3
Mastering display luminance : min: 0.0050 cd/m2, max: 1000 cd/m2
Maximum Content Light Level : 3893 cd/m2
Maximum Frame-Average Light Level : 96 cd/m2
Audio #1
ID : 2
Format : E-AC-3 JOC
Format/Info : Enhanced AC-3 with Joint Object Coding
Commercial name : Dolby Digital Plus with Dolby Atmos
Codec ID : A_EAC3
Duration : 57 min 30 s
Bit rate mode : Constant
Bit rate : 768 kb/s
Channel(s) : 6 channels
Channel layout : L R C LFE Ls Rs
Sampling rate : 48.0 kHz
Frame rate : 31.250 FPS (1536 SPF)
Compression mode : Lossy
Stream size : 316 MiB (3%)
Language : English
Service kind : Complete Main
Default : Yes
Forced : No
Complexity index : 16
Number of dynamic objects : 15
Bed channel count : 1 channel
Bed channel configuration : LFE
Audio #2
ID : 7
Format : AC-3
Format/Info : Audio Coding 3
Commercial name : Dolby Digital
Codec ID : A_AC3
Duration : 57 min 30 s
Bit rate mode : Constant
Bit rate : 384 kb/s
Channel(s) : 6 channels
Channel layout : L R C LFE Ls Rs
Sampling rate : 48.0 kHz
Frame rate : 31.250 FPS (1536 SPF)
Compression mode : Lossy
Stream size : 158 MiB (1%)
Title : MVO, LostFilm
Language : Russian
Service kind : Complete Main
Default : No
Forced : No
Audio #3
ID : 8
Format : AC-3
Format/Info : Audio Coding 3
Commercial name : Dolby Digital
Codec ID : A_AC3
Duration : 57 min 30 s
Bit rate mode : Constant
Bit rate : 384 kb/s
Channel(s) : 6 channels
Channel layout : L R C LFE Ls Rs
Sampling rate : 48.0 kHz
Frame rate : 31.250 FPS (1536 SPF)
Compression mode : Lossy
Stream size : 158 MiB (1%)
Title : MVO, TVShows
Language : Russian
Service kind : Complete Main
Default : No
Forced : No
Audio #4
ID : 9
Format : AC-3
Format/Info : Audio Coding 3
Commercial name : Dolby Digital
Codec ID : A_AC3
Duration : 57 min 30 s
Bit rate mode : Constant
Bit rate : 384 kb/s
Channel(s) : 6 channels
Channel layout : L R C LFE Ls Rs
Sampling rate : 48.0 kHz
Frame rate : 31.250 FPS (1536 SPF)
Compression mode : Lossy
Stream size : 158 MiB (1%)
Title : MVO, NewStudio
Language : Russian
Service kind : Complete Main
Default : No
Forced : No
Text #1
ID : 3
Format : UTF-8
Codec ID : S_TEXT/UTF8
Codec ID/Info : UTF-8 Plain Text
Duration : 54 min 54 s
Bit rate : 35 b/s
Count of elements : 487
Stream size : 14.2 KiB (0%)
Title : Full
Language : English
Default : No
Forced : No
Text #2
ID : 4
Format : UTF-8
Codec ID : S_TEXT/UTF8
Codec ID/Info : UTF-8 Plain Text
Duration : 55 min 44 s
Bit rate : 40 b/s
Count of elements : 601
Stream size : 16.6 KiB (0%)
Title : SDH
Language : English
Default : No
Forced : No
Text #3
ID : 5
Format : UTF-8
Codec ID : S_TEXT/UTF8
Codec ID/Info : UTF-8 Plain Text
Duration : 56 min 32 s
Bit rate : 59 b/s
Count of elements : 497
Stream size : 24.6 KiB (0%)
Title : Full
Language : Russian
Default : No
Forced : No
Text #4
ID : 6
Format : UTF-8
Codec ID : S_TEXT/UTF8
Codec ID/Info : UTF-8 Plain Text
Duration : 56 min 32 s
Bit rate : 56 b/s
Count of elements : 496
Stream size : 23.5 KiB (0%)
Title : Full
Language : Ukrainian
Default : No
Forced : No

О релизе

• Многие начнут задавать вопрос,почему оригинальная дорога и субтитры первые,поэтому хочу внести ясность в этом вопросе.При разложении оригинальных файлов на потоки и последующей сборки в единый файл появлялся большой плавающий рассинхрон.После разных проб я убедился,что это можно избежать только одним способом,не трогать оригинальный файл,а просто добавить отсинхроненные русские дороги.Я думаю,что вся это фигня от некачественной снятии защиты.
AdGuard VPN - бесплатный, надёжный и быстрый VPN
[korsars.pro].t37970.torrent 
Торрент: Зарегистрирован [ 2021-04-05 09:00 ] · F1AF95BB1F859A864CDEB7BAD0E4EBD6FF684AE3

Скачать .torrent

Размер .torrent файла 390 KB

Статус: проверено
.torrent скачан: 4 раз
Размер: 77,59 GB
Правила
AdGuard VPN - бесплатный, надёжный и быстрый VPN
Похожие темы

Вы не зарегистрированы на нашем сайте. Вам доступна для скачивания только часть контента. Чтобы увидеть весь контент сайта, пожалуйста, зарегистрируйтесь.

Дешевый и быстрый Сидбокс
У Вас отключен VIP статус, поэтому Вам показывается реклама на сайте. Вы можете поддержать наш ресурс и приобрести VIP статус, тем самым отключив показ рекламы на сайте, а ещё VIP пользователи получают 15 инвайтов, которыми можно поделиться с друзьями или знакомыми.
Дешевый и быстрый Сидбокс
[Профиль] [ЛС]
Показать сообщения:    
Ответить на тему

Текущее время: 23-Апр 18:11

Часовой пояс: UTC + 4



Вы не можете начинать темы
Вы не можете отвечать на сообщения
Вы не можете редактировать свои сообщения
Вы не можете удалять свои сообщения
Вы не можете голосовать в опросах
Вы не можете прикреплять файлы к сообщениям
Вы можете скачивать файлы
Анализ сайта korsars.pro Яндекс.Метрика

Материал для зрителей старше 18 летВсе материалы на сайте получены из свободных источников в сети Интернет и представлены исключительно для личного (некоммерческого) использования лицами старше 18 лет.