Лунный рыцарь / Moon Knight [S01] (2022) WEB-DLRip-HEVC 1080p | LostFilm

Ответить на тему
Статистика раздачи [Обновить пиров]
Размер:  10.99 GB   |    Зарегистрирован:  2 года 1 месяц   |    .torrent скачан:  4 раза

Полного источника не было: 1 год 8 месяцев

   
 
Автор Сообщение

ExPlayer ®

Онлайн

Медали


Пол: Мужской

Стаж: 9 лет 7 месяцев

Наличие запрета:

Сообщений: 61319

Откуда: korsars.pro

Отдача: 100 Mb/s

Загрузка: 100 Mb/s



AdGuard VPN - бесплатный, надёжный и быстрый VPN

Создавать темы 07-Май-2022 09:00

[Цитировать]


Информация о фильме
Название: Лунный рыцарь
Оригинальное название: Moon Knight
Год выпуска: 2022
Жанр: Ужасы, фантастика, фэнтези, боевик, драма, приключения
Режиссёр: Джастин Бенсон, Мохамед Диаб, Аарон Мурхед
В ролях: Оскар Айзек, Итэн Хоук, Мэй Каламави, Гаспар Ульель, Ф. Мюррэй Абрахам, Фернанда Андраде, София Асир, Диана Бермудес, Энн Акин, Рей Лукас и другие.
О фильме:: Основанный на персонаже комиксов Marvel, созданном писателем Дугом Мёнчем и художником Доном Перлином, «Лунный рыцарь» от исполнительного продюсера Джереми Слейтера рассказывает историю Стивена Гранта (Оскар Айзек), кроткого «продавца сувениров», живущего в одиночестве в Лондоне недалеко от музея, где он работает. Бывший морской пехотинец долгое время работал на ЦРУ, после чего стал наёмником. Находясь на грани жизни и смерти, был воскрешён древним божеством. Он становится Лунным рыцарем после того, как он создал канал для египетского бога луны Хонсу, который наделил его особыми способностями. Хотя Стивен предпочел бы проводить свои дни дома или водить посетителей показывая экспонаты музея Древнего Египта, он обычно застревает в кладовой сувенирного магазина из-за своей неорганизованности на рабочем месте. Каким бы сознанием не обладал Стивен, он часто теряет значительные его части вместе с любыми воспоминаниями о том, что происходит всякий раз, когда он впадает в одно из своих загадочных состояний фуги. У него наблюдается расстройство личности, в результате которого в бою иногда сражаются его альтер-эго. Итан Хоук и Мэй Каламави присоединяются к сюжету сериала в роли Артура Хэрроу и Лейлы соответственно.

Страна: США
Студия: Marvel Studios Inc.
Продолжительность: 6 x ~ 00:45:00
Перевод: Профессиональный (многоголосый, закадровый) LostFilm
Файл
Кодек: H265
Качество: WEB-DLRip-HEVC 1080p
Видео: MPEG-H HEVC, 1920 x 804, 24.000 FPS, ~ 5000 kbps
Аудио 1: AC3, 48 KHz, 2 ch, 384 kbps | LostFilm
Аудио 2: E-AC3, 48 KHz, 6 ch, 768 kbs | Английский
Субтитры: Full (Русские, английские)
Реклама: Отсутствует

Релиз

Релиз от nonstop2015
Без рекламы. Качество: WEB-DL.1080p.HEVC.x265.10 bit [DSNP]
Релиз от nonstop2015 Перевод: Профессиональный многоголосый
Аудио №1: Russian: 48 kHz, AC3, 2 ch, 384 Кбит/с - LostFilm
Аудио №2: English: 48 kHz, E-AC3 JOC, 6 ch, 768 Кбит/с
Субтитры: Русские (Полные), English (Full, SDH).

MediaInfo

General
Unique ID : 172018410179316934203266893365559496770 (0x81698A6C4CBD5A50A070010183211042)
Complete name : K:Moon Knight.S01.DSNP.WEB-DL.1080p.x265Moon Knight.S01E01.DSNP.WEB-DL.1080p.HEVC.10bit.mkv
Format : Matroska
Format version : Version 4 / Version 2
File size : 1.93 GiB
Duration : 45 min 32 s
Overall bit rate : 6 074 kb/s
Movie name : Moon Knight.S01E01.DSNP.WEB-DL.1080p.HEVC.10bit
Encoded date : UTC 2022-05-05 15:45:54
Writing application : mkvmerge v8.0.0 ('Til The Day That I Die') 64bit
Writing library : libebml v1.3.1 + libmatroska v1.4.2
Video
ID : 1
Format : HEVC
Format/Info : High Efficiency Video Coding
Format profile : Main 10@L4@Main
Codec ID : V_MPEGH/ISO/HEVC
Duration : 45 min 32 s
Bit rate : 4 918 kb/s
Width : 1 920 pixels
Height : 804 pixels
Display aspect ratio : 2.40:1
Frame rate mode : Variable
Frame rate : 24.000 FPS
Color space : YUV
Chroma subsampling : 4:2:0
Bit depth : 10 bits
Bits/(Pixel*Frame) : 0.133
Stream size : 1.56 GiB (81%)
Title : Moon Knight.S01E01
Writing library : x265 3.5+20-4c4aee0bc:[DJATOM's Mod][Windows][GCC 10.2.1][64 bit] 10bit
Encoding settings : cpuid=1111039 / frame-threads=4 / numa-pools=24 / wpp / no-pmode / no-pme / no-psnr / no-ssim / log-level=2 / input-csp=1 / input-res=1920x804 / interlace=0 / total-frames=65573 / level-idc=0 / high-tier=1 / uhd-bd=0 / ref=5 / no-allow-non-conformance / no-repeat-headers / annexb / no-aud / no-hrd / info / hash=0 / no-temporal-layers / open-gop / min-keyint=24 / keyint=250 / gop-lookahead=0 / bframes=8 / b-adapt=2 / b-pyramid / bframe-bias=0 / rc-lookahead=80 / lookahead-slices=4 / scenecut=40 / hist-scenecut=0 / radl=0 / no-splice / no-intra-refresh / ctu=64 / min-cu-size=8 / no-rect / no-amp / max-tu-size=32 / tu-inter-depth=1 / tu-intra-depth=1 / limit-tu=0 / rdoq-level=2 / dynamic-rd=0.00 / no-ssim-rd / signhide / no-tskip / nr-intra=0 / nr-inter=0 / no-constrained-intra / no-strong-intra-smoothing / max-merge=3 / limit-refs=3 / limit-modes / me=3 / subme=5 / merange=57 / temporal-mvp / no-frame-dup / no-hme / weightp / no-weightb / no-analyze-src-pics / deblock=-3:-3 / no-sao / no-sao-non-deblock / rd=4 / selective-sao=0 / no-early-skip / rskip / no-fast-intra / no-tskip-fast / no-cu-lossless / no-b-intra / no-splitrd-skip / rdpenalty=0 / psy-rd=2.00 / psy-rdoq=1.00 / no-rd-refine / no-lossless / cbqpoffs=0 / crqpoffs=0 / rc=crf / crf=18.0 / qcomp=0.60 / qpstep=4 / stats-write=0 / stats-read=0 / ipratio=1.40 / pbratio=1.30 / aq-mode=3 / aq-strength=1.00 / cutree / zone-count=0 / no-strict-cbr / qg-size=32 / no-rc-grain / qpmax=69 / qpmin=0 / no-const-vbv / sar=0 / overscan=0 / videoformat=5 / range=0 / colorprim=1 / transfer=1 / colormatrix=1 / chromaloc=0 / display-window=0 / cll=0,0 / min-luma=0 / max-luma=1023 / log2-max-poc-lsb=8 / vui-timing-info / vui-hrd-info / slices=1 / no-opt-qp-pps / no-opt-ref-list-length-pps / no-multi-pass-opt-rps / scenecut-bias=0.05 / hist-threshold=0.03 / no-opt-cu-delta-qp / no-aq-motion / no-hdr10 / no-hdr10-opt / no-dhdr10-opt / no-idr-recovery-sei / analysis-reuse-level=0 / analysis-save-reuse-level=0 / analysis-load-reuse-level=0 / scale-factor=0 / refine-intra=0 / refine-inter=0 / refine-mv=1 / refine-ctu-distortion=0 / no-limit-sao / ctu-info=0 / no-lowpass-dct / refine-analysis-type=0 / copy-pic=1 / max-ausize-factor=1.0 / no-dynamic-refine / no-single-sei / no-hevc-aq / no-svt / no-field / qp-adaptation-range=1.00 / scenecut-aware-qp=0conformance-window-offsets / right=0 / bottom=0 / decoder-max-rate=0 / no-vbv-live-multi-pass
Language : English
Default : Yes
Forced : No
Color range : Limited
Color primaries : BT.709
Transfer characteristics : BT.709
Matrix coefficients : BT.709
Audio #1
ID : 2
Format : AC-3
Format/Info : Audio Coding 3
Format settings, Endianness : Big
Codec ID : A_AC3
Duration : 45 min 32 s
Bit rate mode : Constant
Bit rate : 384 kb/s
Channel(s) : 2 channels
Channel positions : Front: L R
Sampling rate : 48.0 kHz
Frame rate : 31.250 FPS (1536 SPF)
Bit depth : 16 bits
Compression mode : Lossy
Delay relative to video : 8 ms
Stream size : 125 MiB (6%)
Title : LostFilm
Language : Russian
Service kind : Complete Main
Default : Yes
Forced : No
Audio #2
ID : 3
Format : E-AC-3
Format/Info : Enhanced Audio Coding 3
Format profile : E-AC-3+Atmos / E-AC-3
Format settings, Endianness : Big
Codec ID : A_EAC3
Duration : 45 min 32 s
Bit rate mode : Constant
Bit rate : 768 kb/s
Channel(s) : 15 objects / 6 channels
Channel positions : 15 objects / Front: L C R, Side: L R, LFE
Sampling rate : 48.0 kHz
Frame rate : 187.500 FPS (256 SPF)
Compression mode : Lossy
Stream size : 250 MiB (13%)
Title : Original
Language : English
Service kind : Complete Main
Default : No
Forced : No
Text #1
ID : 4
Format : UTF-8
Codec ID : S_TEXT/UTF8
Codec ID/Info : UTF-8 Plain Text
Duration : 36 min 55 s
Bit rate : 90 b/s
Count of elements : 450
Stream size : 24.6 KiB (0%)
Title : Full
Language : Russian
Default : Yes
Forced : No
Text #2
ID : 5
Format : UTF-8
Codec ID : S_TEXT/UTF8
Codec ID/Info : UTF-8 Plain Text
Duration : 36 min 55 s
Bit rate : 58 b/s
Count of elements : 450
Stream size : 15.9 KiB (0%)
Title : Full
Language : English
Default : No
Forced : No
Text #3
ID : 6
Format : UTF-8
Codec ID : S_TEXT/UTF8
Codec ID/Info : UTF-8 Plain Text
Duration : 41 min 9 s
Bit rate : 60 b/s
Count of elements : 555
Stream size : 18.4 KiB (0%)
Title : SDH
Language : English
Default : No
Forced : No
Menu
00:42:59.583 : en:Credits

Скриншоты



AdGuard VPN - бесплатный, надёжный и быстрый VPN
[korsars.pro].t56877.torrent 
Торрент: Зарегистрирован [ 2022-05-07 09:00 ] · AED70B207F321738713972D65DCCC8E67F7479DB

Скачать .torrent

Размер .torrent файла 111 KB

Статус: проверено
.torrent скачан: 4 раз
Размер: 10.99 GB
Правила

AdGuard VPN - бесплатный, надёжный и быстрый VPN
Похожие темы

Вы не зарегистрированы на нашем сайте. Вам доступна для скачивания только часть контента. Чтобы увидеть весь контент сайта, пожалуйста, зарегистрируйтесь.

Дешевый и быстрый Сидбокс
У Вас отключен VIP статус, поэтому Вам показывается реклама на сайте. Вы можете поддержать наш ресурс и приобрести VIP статус, тем самым отключив показ рекламы на сайте, а ещё VIP пользователи получают 15 инвайтов, которыми можно поделиться с друзьями или знакомыми.
Дешевый и быстрый Сидбокс
AdGuard - Интернет без рекламы и слежки в любом браузере
[Профиль] [ЛС]
Показать сообщения:    
Ответить на тему

Текущее время: 21-Июн 19:02

Часовой пояс: UTC + 4



Вы не можете начинать темы
Вы не можете отвечать на сообщения
Вы не можете редактировать свои сообщения
Вы не можете удалять свои сообщения
Вы не можете голосовать в опросах
Вы не можете прикреплять файлы к сообщениям
Вы можете скачивать файлы
Яндекс.Метрика

Материал для зрителей старше 18 летВсе материалы на сайте получены из свободных источников в сети Интернет и представлены исключительно для личного (некоммерческого) использования лицами старше 18 лет.