Соколиный Глаз / Hawkeye [S01] (2021) WEB-DL-HEVC 2160p | 4K | Dolby Vision TV | HDRezka Studio

Ответить на тему
Статистика раздачи [Обновить пиров]
Размер:  45.32 GB   |    Зарегистрирован:  2 года 5 месяцев   |    .torrent скачан:  4 раза
DL-List: Нет

Полного источника не было: 2 года 4 месяца

   
 
Автор Сообщение

ExPlayer ®

Онлайн

Медали


Пол: Мужской

Стаж: 9 лет 7 месяцев

Наличие запрета:

Сообщений: 61320

Откуда: korsars.pro

Отдача: 100 Mb/s

Загрузка: 100 Mb/s



AdGuard VPN - бесплатный, надёжный и быстрый VPN

Создавать темы 25-Дек-2021 05:00

[Цитировать]



Информация о фильме
Название: Соколиный Глаз
Оригинальное название: Hawkeye
Год выхода: 2021
Жанр: фантастика, боевик, драма, криминал, детектив, приключения
Режиссер: Берт, Кэти Эллвуд, Риз Томас
В ролях: Джереми Реннер, Хейли Стайнфелд, Тони Далтон, Вера Фармига, Линда Карделлини, Алаква Кокс, Алекс Паунович, Фра Фи, Ава Руссо, Петр Адамчик
О фильме:
«Соколиный глаз» — это очередной проект супергеройской линейки Marvel, в рамках которой уже вышли «ВандаВижен», «Локи» и «Сокол и Зимний солдат». Новое шоу отличается рождественской атмосферой, отсылающей зрителей к культовой классике вроде «Один дома», авантюрным духом, легкостью повествования, насыщенностью сюжета и способностью поднимать настроение с первых кадров. За режиссуру сериала отвечали Риз Томас, а также работавшие над «Шучу» и «Великой» постановщицы Берти и Берт, а компанию Джереми Реннеру в деле борьбы со злом составила Хейли Стайнфелд, которую, по мнению критиков, после выхода «Соколиного глаза» ждет неизбежный карьерный скачок. На данный момент новый телевизионный проект Marvel считается одним из наиболее удачных переносов оригинальных комиксов на малые экраны.
Клинт Бартон (Джереми Реннер) в кои-то веки сменил спасение мира на семейный досуг. Он с нетерпением ждет рождественского ужина в кругу самых близких, которые тоже устали от вечного отсутствия главы семейства на «работе». Однако если с большой силой к тебе уже однажды пришла большая ответственность, нельзя так просто взять и сложить с себя супергеройские обязанности только потому, что дома стынет индейка. И когда в городе объявляется банда злодеев, которыми управляет явно кто-то очень могущественный, Клинту вновь приходится расчехлять свой лук и выходить на улицу. К счастью, бывалый ветеран не будет отдуваться в одиночку — ему на подмогу уже спешит молодая и бойкая Кейт Бишоп (Хейли Стайнфелд). Как давняя фанатка Соколиного глаза, она с нетерпением ждет шанса ворваться в бой, но как еще не очень опытный боец постоянно что-то делает не так, повергая Бартона в недоумение. Как бы то ни было, но один лук хорошо, а два — лучше, и вскоре вероломно вломившиеся в город чужаки на своей шкуре прочувствуют всю мощь этого экстраординарного тандема.

Страна: США
Студия: Disney+, Marvel Studios Inc., Walt Disney Pictures
Продолжительность: 6 x ~ 00:50:00
Перевод: Многоголосый профессиональный
Файл
Формат: MP4
Кодек: H.265
Качество: WebDL 2160p
Видео: HEVC, Dolby Vision Profile 5, ~22 Mбит/с, 3840x2160, 24.000 кадр/с
Звук:
Аудио #1 Русский: AC3, 48.0 kHz, 5.1 ch, 448 Kbps [MVO, HDRezka Studio]
Аудио #2 Украинский: AC3, 48.0 kHz, 5.1 ch, 384 Kbps [MVO, DniproFilm]
Аудио #3 English: EAC3+Atmos, 48.0 kHz, 5.1 ch, 768 Kbps [Original]
Субтитры: русские (форс., полные), украинские(форс.), английские (полные, SDH)
Дополнительная информация:
Релиз в MP4 в 5-м профиле Dolby Vision для воспроизведении на устройствах с поддержкой DV. Протестировано на тв-боксах Nvidia Shield 2019, Zidoo Z1000 Pro, Amazon FireTV Stick 4k, TiVo Stream 4K и Ugoos AM6+ и многих других, а также на встроенных плеерах телевизоров LG, Sony, Phillips и Panasonic.
На устройствах без поддержки Dolby Vision проигрываться не будет(или будет, но с искаженными цветами), так как в видеоряде отсутствует HDR слой

Mediainfo

Общее
Полное имя : \Slid-NASSerialsСоколиный ГлазHawkeye.2021.S01.2160p.DSNP.WEB-DL.DDP5.1.Atmos.DoVi.by.DVTHawkeye.2021.S01E01.Never.Meet.Your.Heroes.2160p.DSNP.WEB-DL.DDP5.1.Atmos.DoVi.by.DVT.mp4
Формат : MPEG-4
Профиль формата : Base Media / Version 2
Идентификатор кодека : mp42 (isom/mp42/dby1)
Размер файла : 7,70 Гбайт
Продолжительность : 47 м. 24 с.
Режим общего битрейта : Переменный
Общий поток : 23,2 Мбит/сек
Название фильма : Hawkeye (2021) S01E01. Never Meet Your Heroes. Release by Dolby Vision Torrents
Дата кодирования : UTC 2021-11-27 13:00:35
Дата пометки : UTC 2021-11-27 13:00:35
Программа кодирования : GPAC-1.1.0-DEV-rev1027-g1daa0b5f-master
Видео
Идентификатор : 1
Формат : HEVC
Формат/Информация : High Efficiency Video Coding
Профиль формата : Main 10@L5.2@Main
HDR format : Dolby Vision, Version 1.0, dvhe.05.06, BL+RPU
Идентификатор кодека : dvhe
Идентификатор кодека/Информация : High Efficiency Video Coding with Dolby Vision
Продолжительность : 47 м. 24 с.
Битрейт : 21,6 Мбит/сек
Ширина : 3 840 пикселей
Высота : 2 160 пикселей
Соотношение сторон : 16:9
Режим частоты кадров : Постоянный
Частота кадров : 24,000 кадра/сек
Цветовое пространство : YUV
Субдискретизация насыщенности : 4:2:0 (Type 0)
Битовая глубина : 10 бит
Бит/(Пиксели*Кадры) : 0.109
Размер потока : 7,17 Гбайт (93%)
Заголовок : Hawkeye (2021) S01E01. Never Meet Your Heroes
Язык : English
Default : Да
Alternate group : 1
Дата кодирования : UTC 2021-11-24 08:23:28
Дата пометки : UTC 2021-11-27 13:01:04
Цветовой диапазон : Full
Codec configuration box : hvcC+dvcC
Аудио #1
Идентификатор : 2
Формат : AC-3
Формат/Информация : Audio Coding 3
Коммерческое название : Dolby Digital
Идентификатор кодека : ac-3
Продолжительность : 47 м. 24 с.
Вид битрейта : Постоянный
Битрейт : 448 Кбит/сек
Максимальный битрейт : 473 Кбит/сек
Каналы : 6 каналов
Channel layout : L R C LFE Ls Rs
Частота : 48,0 КГц
Частота кадров : 31,250 кадров/сек (1536 SPF)
Метод сжатия : С потерями
Размер потока : 152 Мбайт (2%)
Заголовок : MVO, HDRezka Studio
Язык : Russian
Service kind : Complete Main
Дата кодирования : UTC 2021-11-27 13:00:54
Дата пометки : UTC 2021-11-27 13:01:04
Аудио #2
Идентификатор : 3
Формат : AC-3
Формат/Информация : Audio Coding 3
Коммерческое название : Dolby Digital
Идентификатор кодека : ac-3
Продолжительность : 47 м. 24 с.
Вид битрейта : Постоянный
Битрейт : 384 Кбит/сек
Максимальный битрейт : 406 Кбит/сек
Каналы : 6 каналов
Channel layout : L R C LFE Ls Rs
Частота : 48,0 КГц
Частота кадров : 31,250 кадров/сек (1536 SPF)
Метод сжатия : С потерями
Размер потока : 130 Мбайт (2%)
Заголовок : MVO, DniproFilm
Язык : Ukrainian
Service kind : Complete Main
Default : Нет
Дата кодирования : UTC 2021-11-27 13:00:56
Дата пометки : UTC 2021-11-27 13:01:04
Аудио #3
Идентификатор : 4
Формат : E-AC-3 JOC
Формат/Информация : Enhanced AC-3 with Joint Object Coding
Коммерческое название : Dolby Digital Plus with Dolby Atmos
Идентификатор кодека : ec-3
Продолжительность : 47 м. 24 с.
Вид битрейта : Постоянный
Битрейт : 768 Кбит/сек
Максимальный битрейт : 811 Кбит/сек
Каналы : 6 каналов
Channel layout : L R C LFE Ls Rs
Частота : 48,0 КГц
Частота кадров : 31,250 кадров/сек (1536 SPF)
Метод сжатия : С потерями
Размер потока : 260 Мбайт (3%)
Заголовок : Original
Язык : English
Service kind : Complete Main
Default : Нет
Alternate group : 1
Дата пометки : UTC 2021-11-27 13:01:04
Complexity index : Not present / 16
Number of dynamic objects : 15
Bed channel count : 1 канал
Bed channel configuration : LFE
Текст #1
Идентификатор : 5
Формат : Timed Text
Идентификатор кодека : tx3g
Продолжительность : 41 м. 48 с.
Вид битрейта : Переменный
Битрейт : 10 бит/сек
Размер потока : 3,08 Кбайт (0%)
Заголовок : Forced
Язык : Russian
Default : Да
Forced : Нет
Alternate group : 2
Дата кодирования : UTC 2021-11-27 13:01:04
Дата пометки : UTC 2021-11-27 13:01:04
Текст #2
Идентификатор : 6
Формат : Timed Text
Идентификатор кодека : tx3g
Продолжительность : 44 м. 52 с.
Вид битрейта : Переменный
Битрейт : 80 бит/сек
Размер потока : 26,2 Кбайт (0%)
Заголовок : Full
Язык : Russian
Forced : Нет
Дата кодирования : UTC 2021-11-27 13:01:04
Дата пометки : UTC 2021-11-27 13:01:04
Текст #3
Идентификатор : 7
Формат : Timed Text
Идентификатор кодека : tx3g
Продолжительность : 39 м. 10 с.
Вид битрейта : Переменный
Битрейт : 8 бит/сек
Размер потока : 2,27 Кбайт (0%)
Заголовок : Forced
Язык : Ukrainian
Forced : Нет
Дата кодирования : UTC 2021-11-27 13:01:04
Дата пометки : UTC 2021-11-27 13:01:04
Текст #4
Идентификатор : 8
Формат : Timed Text
Идентификатор кодека : tx3g
Продолжительность : 44 м. 50 с.
Вид битрейта : Переменный
Битрейт : 53 бит/сек
Размер потока : 17,5 Кбайт (0%)
Заголовок : Full
Язык : English
Forced : Нет
Дата кодирования : UTC 2021-11-24 08:24:01
Дата пометки : UTC 2021-11-27 13:01:04
Текст #5
Идентификатор : 9
Формат : Timed Text
Идентификатор кодека : tx3g
Продолжительность : 44 м. 55 с.
Вид битрейта : Переменный
Битрейт : 71 бит/сек
Размер потока : 23,4 Кбайт (0%)
Заголовок : SDH
Язык : English
Forced : Нет
Дата кодирования : UTC 2021-11-24 08:24:01
Дата пометки : UTC 2021-11-27 13:01:04
Меню
00:45:33.417 : Credits

Скриншоты

Релиз от: Dolby Vision Torrents
AdGuard VPN - бесплатный, надёжный и быстрый VPN
[korsars.pro].t49502.torrent 
Торрент: Зарегистрирован [ 2021-12-25 05:00 ] · 170BAB3F236B1E059710BE567DC73DE5D583C37E

Скачать .torrent

Размер .torrent файла 228 KB

Статус: проверено
.torrent скачан: 4 раз
Размер: 45.32 GB
Правила

AdGuard VPN - бесплатный, надёжный и быстрый VPN
Похожие темы

Вы не зарегистрированы на нашем сайте. Вам доступна для скачивания только часть контента. Чтобы увидеть весь контент сайта, пожалуйста, зарегистрируйтесь.

Дешевый и быстрый Сидбокс
У Вас отключен VIP статус, поэтому Вам показывается реклама на сайте. Вы можете поддержать наш ресурс и приобрести VIP статус, тем самым отключив показ рекламы на сайте, а ещё VIP пользователи получают 15 инвайтов, которыми можно поделиться с друзьями или знакомыми.
Дешевый и быстрый Сидбокс
AdGuard - Интернет без рекламы и слежки в любом браузере
[Профиль] [ЛС]
Показать сообщения:    
Ответить на тему

Текущее время: 21-Июн 18:35

Часовой пояс: UTC + 4



Вы не можете начинать темы
Вы не можете отвечать на сообщения
Вы не можете редактировать свои сообщения
Вы не можете удалять свои сообщения
Вы не можете голосовать в опросах
Вы не можете прикреплять файлы к сообщениям
Вы можете скачивать файлы
Яндекс.Метрика

Материал для зрителей старше 18 летВсе материалы на сайте получены из свободных источников в сети Интернет и представлены исключительно для личного (некоммерческого) использования лицами старше 18 лет.