Мандалорец / The Mandalorian [03x01 из 08] (2023) WEB-DL 1080p | LostFilm

Ответить на тему
Статистика раздачи [Обновить пиров]
Размер:  1.76 GB   |    Зарегистрирован:  1 год 4 месяца   |    .torrent скачан:  3 раза
Раздают:  789  [  0 KB/s  ]   Качают:  102  [  0 KB/s  ]   Подробная статистика пиров
   
 
Автор Сообщение

ExPlayer ®

Оффлайн

Медали


Пол: Мужской

Стаж: 9 лет 8 месяцев

Наличие запрета:

Сообщений: 62432

Откуда: korsars.pro

Отдача: 100 Mb/s

Загрузка: 100 Mb/s



AdGuard VPN - бесплатный, надёжный и быстрый VPN

Создавать темы 03-Мар-2023 05:00

[Цитировать]


Информация о сериале
Название: Мандалорец
Оригинальное название: The Mandalorian
Год выпуска: 2023
Жанр: фантастика, боевик, приключения
Режиссер: Дебора Чоу, Рик Фамуйива, Дэйв Филони
В ролях: Педро Паскаль, Кайл Пацек, Брендан Уэйн, Бернард Баллен, Александра Гилман, Луис Ричард Гомес, Джамал Антар, Тейт Флетчер, Тони Табоада, Омид Абтахи
О фильме: Новая стриминговая платформа Disney+ запустилась с козырей — первого игрового сериала по вселенной «Звездных войн». Обладая завидным бюджетом, приключенческая фантастика «Мандалорец» радует глаз олдскульными практическими эффектами, ностальгическими декорациями и реквизитом, более приземленной, чем в оригинале, атмосферой, множеством пасхалок и сюрпризов, а также богатством планет с населяющими их чудаковатыми обитателями. Да и главный герой тут нетипичен: с одной стороны, невозмутимый наемник, с другой — одинокий воин, следующий собственному кодексу чести. За постановку «Мандалорца» отвечал Джон Фавро («Железный человек», «Книга джунглей»), заслуженно вписавший свое имя в империю Уолта Диснея. Он всегда хотел показать непростую жизнь всяких отщепенцев вроде охотников за головами после падения Империи. К тому же ему нравился романтичный, но противоречивый образ контрабандиста Хана Соло. А чтобы сделать приключения Мандалорца не только мрачными, но и эпично-авантюрными, Фавро позвал на подмогу режиссеров Дэйва Филони, вдоль и поперек изучившего далекую галактику в «Войнах клонов» и эксцентрика Тайку Вайтити («Реальные упыри», «Тор: Рагнарек»).
Прошло пять лет после падения Империи, а диктатура Первого Ордена еще не набрала силу. Казалось бы, после победы Повстанцев в галактике должен был воцарить мир. Но некоторые ее обитатели никак не вписываются в привычный уклад, и одним из них становится одинокий охотник за головами, никогда не снимающий шлема с лица Мандалорец (Педро Паскаль). Немногословного бывшего воина мучают воспоминания о гибели родного поселения и своей благородной и некогда сильной нации. Но делать нечего — нужно как-то жить, и Мандалорец соглашается ловить всякое отребье, не особо разбираясь в том, как они провинились. Однажды к нему обращается загадочный клиент (Вернер Херцог) и просит отыскать очередную мишень, предоставляя весьма скудные сведения о цели. Мандалорцу положено знать лишь, что тому, кого он ищет, 50 лет. Каким же оказывается удивление Мандалорца, повидавшего в жизни много диковинных вещей, когда его 50-летняя мишень предстает перед ним куда более молодой на вид особью. Что это за существо, каково его происхождение и почему за ним остервенело охотится половина галактики — это нужно будет выяснить Мандалорцу. А тучи над ним начинают сгущаться: кажется, он, сам того не заметив, угодил в опасную игру, полную закулисных заговоров и вероломных предательств.

Страна: США
Выпущено: Lucasfilm Ltd., Walt Disney Studios
Продолжительность: ~00:40:00 серия
Перевод: Профессиональный (многоголосый, закадровый) LostFilm
Файл
Качество: WEB-DL 1080p
Формат: Matroska
Видео: 1920x1080 at 24.000 fps, MPEG-4 AVC, ~6000 kbps avg
Аудио#1: Russian: 48 kHz, AC3, 2/0 (L,R) ch, ~384 kbps avg |Многоголосый закадровый, LostFilm|
Аудио#2: English: 48 kHz, E-AC3 JOC, 3/2 (L,C,R,l,r) + LFE ch, ~768 kbps avg
Субтитры: Russian (Full), English (Full, SDH)
***Примечание: Без рекламы

Скриншоты

MediaInfo

Общее
Уникальный идентификатор : 300139090312517953798644215834556016378 (0xE1CCAFA79E49187528A8C02A59BCA6FA)
Полное имя : The.Mandalorian.S03E01.mkv
Формат : Matroska
Версия формата : Version 4
Размер файла : 1,76 Гбайт
Продолжительность : 35 м. 16 с.
Режим общего битрейта : Переменный
Общий поток : 7 161 Кбит/сек
Дата кодирования : UTC 2023-03-02 16:51:13
Программа кодирования : mkvmerge v51.0.0 ('I Wish') 64-bit
Библиотека кодирования : libebml v1.4.0 + libmatroska v1.6.2
Видео
Идентификатор : 1
Формат : AVC
Формат/Информация : Advanced Video Codec
Профиль формата : High@L4
Настройки формата : CABAC / 4 Ref Frames
Параметр CABAC формата : Да
Параметр RefFrames формата : 4 кадра
Идентификатор кодека : V_MPEG4/ISO/AVC
Продолжительность : 35 м. 16 с.
Вид битрейта : Переменный
Битрейт : 6 007 Кбит/сек
Максимальный битрейт : 12,7 Мбит/сек
Ширина : 1 920 пикселей
Высота : 1 080 пикселей
Соотношение сторон : 16:9
Режим частоты кадров : Постоянный
Частота кадров : 24,000 кадра/сек
Цветовое пространство : YUV
Субдискретизация насыщенности : 4:2:0
Битовая глубина : 8 бит
Тип развёртки : Прогрессивная
Бит/(Пиксели*Кадры) : 0.121
Размер потока : 1,48 Гбайт (84%)
Default : Да
Forced : Нет
Цветовой диапазон : Limited
Основные цвета : BT.709
Характеристики трансфера : BT.709
Коэффициенты матрицы : BT.709
Аудио #1
Идентификатор : 2
Формат : AC-3
Формат/Информация : Audio Coding 3
Коммерческое название : Dolby Digital
Идентификатор кодека : A_AC3
Продолжительность : 35 м. 16 с.
Вид битрейта : Постоянный
Битрейт : 384 Кбит/сек
Каналы : 2 канала
Channel layout : L R
Частота : 48,0 КГц
Частота кадров : 31,250 кадров/сек (1536 SPF)
Метод сжатия : С потерями
Размер потока : 96,9 Мбайт (5%)
Язык : Russian
Service kind : Complete Main
Default : Да
Forced : Нет
Аудио #2
Идентификатор : 3
Формат : E-AC-3 JOC
Формат/Информация : Enhanced AC-3 with Joint Object Coding
Коммерческое название : Dolby Digital Plus with Dolby Atmos
Идентификатор кодека : A_EAC3
Продолжительность : 35 м. 16 с.
Вид битрейта : Постоянный
Битрейт : 768 Кбит/сек
Каналы : 6 каналов
Channel layout : L R C LFE Ls Rs
Частота : 48,0 КГц
Частота кадров : 31,250 кадров/сек (1536 SPF)
Метод сжатия : С потерями
Размер потока : 194 Мбайт (11%)
Язык : English
Service kind : Complete Main
Default : Нет
Forced : Нет
Complexity index : 16
Number of dynamic objects : 15
Bed channel count : 1 канал
Bed channel configuration : LFE
Текст #1
Идентификатор : 4
Формат : UTF-8
Идентификатор кодека : S_TEXT/UTF8
Идентификатор кодека/Информация : UTF-8 Plain Text
Продолжительность : 32 м. 16 с.
Битрейт : 71 бит/сек
Count of elements : 305
Размер потока : 17,0 Кбайт (0%)
Язык : Russian
Default : Нет
Forced : Нет
Текст #2
Идентификатор : 5
Формат : UTF-8
Идентификатор кодека : S_TEXT/UTF8
Идентификатор кодека/Информация : UTF-8 Plain Text
Продолжительность : 32 м. 16 с.
Битрейт : 43 бит/сек
Count of elements : 303
Размер потока : 10,3 Кбайт (0%)
Язык : English
Default : Нет
Forced : Нет
Текст #3
Идентификатор : 6
Формат : UTF-8
Идентификатор кодека : S_TEXT/UTF8
Идентификатор кодека/Информация : UTF-8 Plain Text
Продолжительность : 32 м. 16 с.
Битрейт : 52 бит/сек
Count of elements : 408
Размер потока : 12,5 Кбайт (0%)
Заголовок : SDH
Язык : English
Default : Нет
Forced : Нет

Раздача ведётся путём добавления новых серий

Внимание! Раздача ведётся путём добавления новых серий; при каждом добавлении создfётся новый торрент. Чтобы начать докачку новой серии, пользователям необходимо сделать следующее: (1) остановить скачивание, (2) удалить старый торрент у себя из клиента (старые серии удалять не надо), (3) скачать новый торрент и запустить его у себя в клиенте вместо старого, при этом указать клиенту путь в старую папку куда и должно происходить скачивание новых серий.
Ваш клиент при этом должен произвести хеширование (проверку) старой папки (если не производит сам - помогите ему сделать это), и будет докачивать только те серии которых у вас ещё нет. Старые серии при этом не удаляются, а продолжают раздаваться!
Eсли вы уже удалили старые серии, то предотвратить повторную закачку старых серий можно, отжав галочку в соответсвующих местах при запуске нового торрента.
AdGuard VPN - бесплатный, надёжный и быстрый VPN
[korsars.pro].t79629.torrent 
Торрент: Зарегистрирован [ 2023-03-03 05:00 ] · 8454FEE1E3FE852BE1F14F63107FCCC476A27D00

Скачать .torrent

Размер .torrent файла 18 KB

Статус: проверено
.torrent скачан: 3 раз
Размер: 1.76 GB
Правила
Тимур(03-Мар-23)

AdGuard VPN - бесплатный, надёжный и быстрый VPN
Похожие темы

Вы не зарегистрированы на нашем сайте. Вам доступна для скачивания только часть контента. Чтобы увидеть весь контент сайта, пожалуйста, зарегистрируйтесь.

Дешевый и быстрый Сидбокс
У Вас отключен VIP статус, поэтому Вам показывается реклама на сайте. Вы можете поддержать наш ресурс и приобрести VIP статус, тем самым отключив показ рекламы на сайте, а ещё VIP пользователи получают 15 инвайтов, которыми можно поделиться с друзьями или знакомыми.
Дешевый и быстрый Сидбокс
AdGuard - Интернет без рекламы и слежки в любом браузере
[Профиль] [ЛС]
Показать сообщения:    
Ответить на тему

Текущее время: 15-Июл 11:48

Часовой пояс: UTC + 4



Вы не можете начинать темы
Вы не можете отвечать на сообщения
Вы не можете редактировать свои сообщения
Вы не можете удалять свои сообщения
Вы не можете голосовать в опросах
Вы не можете прикреплять файлы к сообщениям
Вы можете скачивать файлы
Яндекс.Метрика

Материал для зрителей старше 18 летВсе материалы на сайте получены из свободных источников в сети Интернет и представлены исключительно для личного (некоммерческого) использования лицами старше 18 лет.