Шоу Чашека! / The Cuphead Show! [02x01-05 из 13] (2022) WEB-DL 720p | TVShows

Ответить на тему
Статистика раздачи [Обновить пиров]
Размер:  2.36 GB   |    Зарегистрирован:  1 год 9 месяцев   |    .torrent скачан:  1 раз
Раздают:  4  [  0 KB/s  ]   Качают:  2  [  0 KB/s  ]   Подробная статистика пиров
   
 
Автор Сообщение

ExPlayer ®

Оффлайн

Медали


Пол: Мужской

Стаж: 9 лет 7 месяцев

Наличие запрета:

Сообщений: 61320

Откуда: korsars.pro

Отдача: 100 Mb/s

Загрузка: 100 Mb/s



AdGuard VPN - бесплатный, надёжный и быстрый VPN

Создавать темы 30-Авг-2022 05:00

[Цитировать]


Информация о фильме
Название: Шоу Чашека!
Оригинальное название: The Cuphead Show!
Год выхода: 2022
Жанр: мультфильм, короткометражка, фэнтези, боевик, комедия, приключения, семейный
Режиссёр: Клэй Морроу, Адам Палоян
В ролях: Тру Валентино, Фрэнк Тодаро, Люк Миллингтон-Дрэйк, Джо Ханна, Уэйн Брэди, Джим Конрой, Грэй Гриффин
О фильме: Братья Чашек и Кружек — веселые непоседы, готовые разделить любые невзгоды. Однажды их заносит на карнавал, где дуэту предстоит сразиться с самим дьяволом.
«Шоу Чашека» — адаптация хардкорного платформера, вдохновленного анимацией первой трети прошлого века (преимущественно работами братьев Флейшер). Идея вернуть похождения Чашека и Кружека на малый экран напрашивалась сама собой — достаточно взглянуть на этот по-хорошему старомодный дизайн и выразительных персонажей (лягушки-боксеры! усатая свинья-торговец! злодей с игральной костью вместо головы!).

Страна: США
Студия: Netflix Animation, King Features Syndicate, Studio MDHR
Продолжительность: ~00:12:00 серия
Перевод: профессиональный (многоголосый закадровый) TVShows
Файл
Качество: WEB-DL 720p
Контейнер: MKV
Видео: AVC, 1280x720 (16:9), ~ 3480 Kbps, 24.000 fps
Аудио 1: AC3, 48 kHz, 2 ch, 256 kbps - Rus (TVShows)
Аудио 2: AC3, 48 kHz, 6 ch, 640 kbps - Eng
Субтитры: Русские (Full), английские (SDH), украинские, немецкие, французские, итальянские, испанские, голландские, португальские
Реклама: Отсутствует
Релиз: Atla22@EniaHD

Список серий

2-01. Побег из тюрьмы / Jailbroken
2-02. Зачарованы и опасны / Charmed & Dangerous
2-03. Морское приключение! / A High Seas Adventure!
2-04. Другой брат / Another Brother
2-05. Сладкое искушение / Sweet Temptation
2-06. Жуткий человек-мороженое / The I Scream Man
2-07. Урок игры на фортепиано / Piano Lesson
2-08. Вперёд, демоны! / Release the Demons!
2-09. Ни гроша за душой / Dead Broke
2-10. Крысиные дела / Rat's All, Folks
2-11. Улыбочку / Say Cheese
2-12. Заблудившиеся в лесу / Lost in the Woods
2-13. Трезубец дьявола / The Devil's Pitchfork

Скриншоты

MediaInfo

Общее
Уникальный идентификатор : 224018794512073567103598897284357933157 (0xA888735067AFD901B4CF804209B5C865)
Полное имя : The.Cuphead.Show.s02e01. Побег из тюрьмы.mkv
Формат : Matroska
Версия формата : Version 2
Размер файла : 362 Мбайт
Продолжительность : 11 м. 35 с.
Режим общего битрейта : Переменный
Общий поток : 4361 Кбит/сек
Название фильма : The.Cuphead.Show.S02E01.Jailbroken.WEB-DL 720p.EniaHD@Atla22
Дата кодирования : UTC 2022-08-28 19:38:48
Программа кодирования : mkvmerge v6.9.1 ('Blue Panther') 32bit built on Apr 18 2014 18:15:44
Библиотека кодирования : libebml v1.3.0 + libmatroska v1.4.1
Обложка : Yes
Attachments : Cover_The.Cuphead.Show.jpg
Видео
Идентификатор : 1
Формат : AVC
Формат/Информация : Advanced Video Codec
Профиль формата : Main@L3.1
Настройки формата : CABAC / 3 Ref Frames
Параметр CABAC формата : Да
Параметр RefFrames формата : 3 кадра
Идентификатор кодека : V_MPEG4/ISO/AVC
Продолжительность : 11 м. 35 с.
Вид битрейта : Переменный
Битрейт : 3480 Кбит/сек
Максимальный битрейт : 5220 Кбит/сек
Ширина : 1280 пикселей
Высота : 720 пикселей
Соотношение сторон : 16:9
Режим частоты кадров : Постоянный
Частота кадров : 24,000 кадра/сек
Цветовое пространство : YUV
Субдискретизация насыщенности : 4:2:0
Битовая глубина : 8 бит
Тип развёртки : Прогрессивная
Бит/(Пиксели*Кадры) : 0.157
Размер потока : 280 Мбайт (77%)
Библиотека кодирования : x264 core 148 r2727 7d026e8
Настройки программы : cabac=1 / ref=3 / deblock=1:0:0 / analyse=0x1:0x111 / me=umh / subme=10 / psy=1 / psy_rd=1.00:0.00 / mixed_ref=1 / me_range=24 / chroma_me=1 / trellis=2 / 8x8dct=0 / cqm=0 / deadzone=21,11 / fast_pskip=1 / chroma_qp_offset=-2 / threads=8 / lookahead_threads=1 / sliced_threads=0 / nr=0 / decimate=1 / interlaced=0 / bluray_compat=0 / stitchable=1 / constrained_intra=0 / bframes=2 / b_pyramid=0 / b_adapt=2 / b_bias=0 / direct=3 / weightb=1 / open_gop=0 / weightp=2 / keyint=250 / keyint_min=24 / scenecut=0 / intra_refresh=0 / rc_lookahead=48 / rc=2pass / mbtree=1 / bitrate=3480 / ratetol=1.0 / qcomp=0.50 / qpmin=6 / qpmax=51 / qpstep=4 / cplxblur=20.0 / qblur=0.5 / vbv_maxrate=5220 / vbv_bufsize=6960 / nal_hrd=vbr / filler=0 / ip_ratio=1.40 / aq=1:1.00
Язык : English
Default : Да
Forced : Нет
Аудио #1
Идентификатор : 2
Формат : AC-3
Формат/Информация : Audio Coding 3
Коммерческое название : Dolby Digital
Идентификатор кодека : A_AC3
Продолжительность : 11 м. 35 с.
Вид битрейта : Постоянный
Битрейт : 256 Кбит/сек
Каналы : 2 канала
Channel layout : L R
Частота : 48,0 КГц
Частота кадров : 31,250 кадров/сек (1536 SPF)
Битовая глубина : 16 бит
Метод сжатия : С потерями
Размер потока : 21,2 Мбайт (6%)
Заголовок : TVShows
Язык : Russian
Service kind : Complete Main
Default : Да
Forced : Нет
Аудио #2
Идентификатор : 3
Формат : AC-3
Формат/Информация : Audio Coding 3
Коммерческое название : Dolby Digital
Идентификатор кодека : A_AC3
Продолжительность : 11 м. 35 с.
Вид битрейта : Постоянный
Битрейт : 640 Кбит/сек
Каналы : 6 каналов
Channel layout : L R C LFE Ls Rs
Частота : 48,0 КГц
Частота кадров : 31,250 кадров/сек (1536 SPF)
Битовая глубина : 16 бит
Метод сжатия : С потерями
Размер потока : 53,1 Мбайт (15%)
Язык : English
Service kind : Complete Main
Default : Нет
Forced : Нет
Текст #1
Идентификатор : 4
Формат : UTF-8
Идентификатор кодека : S_TEXT/UTF8
Идентификатор кодека/Информация : UTF-8 Plain Text
Язык : Russian
Default : Нет
Forced : Нет
Текст #2
Идентификатор : 5
Формат : UTF-8
Идентификатор кодека : S_TEXT/UTF8
Идентификатор кодека/Информация : UTF-8 Plain Text
Заголовок : SDH
Язык : English
Default : Нет
Forced : Нет
Текст #3
Идентификатор : 6
Формат : UTF-8
Идентификатор кодека : S_TEXT/UTF8
Идентификатор кодека/Информация : UTF-8 Plain Text
Язык : Ukrainian
Default : Нет
Forced : Нет
Текст #4
Идентификатор : 7
Формат : UTF-8
Идентификатор кодека : S_TEXT/UTF8
Идентификатор кодека/Информация : UTF-8 Plain Text
Язык : German
Default : Нет
Forced : Нет
Текст #5
Идентификатор : 8
Формат : UTF-8
Идентификатор кодека : S_TEXT/UTF8
Идентификатор кодека/Информация : UTF-8 Plain Text
Язык : French
Default : Нет
Forced : Нет
Текст #6
Идентификатор : 9
Формат : UTF-8
Идентификатор кодека : S_TEXT/UTF8
Идентификатор кодека/Информация : UTF-8 Plain Text
Язык : Italian
Default : Нет
Forced : Нет
Текст #7
Идентификатор : 10
Формат : UTF-8
Идентификатор кодека : S_TEXT/UTF8
Идентификатор кодека/Информация : UTF-8 Plain Text
Язык : Spanish
Default : Нет
Forced : Нет
Текст #8
Идентификатор : 11
Формат : UTF-8
Идентификатор кодека : S_TEXT/UTF8
Идентификатор кодека/Информация : UTF-8 Plain Text
Язык : Dutch
Default : Нет
Forced : Нет
Текст #9
Идентификатор : 12
Формат : UTF-8
Идентификатор кодека : S_TEXT/UTF8
Идентификатор кодека/Информация : UTF-8 Plain Text
Язык : Portuguese
Default : Нет
Forced : Нет
AdGuard VPN - бесплатный, надёжный и быстрый VPN
[korsars.pro].t67236.torrent 
Торрент: Зарегистрирован [ 2022-08-30 05:00 ] · 42101E954D4C4D8137D6CC3E5C9A4D3A0161F4CE

Скачать .torrent

Размер .torrent файла 13 KB

Статус: проверено
.torrent скачан: 1 раз
Размер: 2.36 GB
Правила

AdGuard VPN - бесплатный, надёжный и быстрый VPN
Похожие темы

Вы не зарегистрированы на нашем сайте. Вам доступна для скачивания только часть контента. Чтобы увидеть весь контент сайта, пожалуйста, зарегистрируйтесь.

Дешевый и быстрый Сидбокс
У Вас отключен VIP статус, поэтому Вам показывается реклама на сайте. Вы можете поддержать наш ресурс и приобрести VIP статус, тем самым отключив показ рекламы на сайте, а ещё VIP пользователи получают 15 инвайтов, которыми можно поделиться с друзьями или знакомыми.
Дешевый и быстрый Сидбокс
AdGuard - Интернет без рекламы и слежки в любом браузере
[Профиль] [ЛС]
Показать сообщения:    
Ответить на тему

Текущее время: 21-Июн 08:16

Часовой пояс: UTC + 4



Вы не можете начинать темы
Вы не можете отвечать на сообщения
Вы не можете редактировать свои сообщения
Вы не можете удалять свои сообщения
Вы не можете голосовать в опросах
Вы не можете прикреплять файлы к сообщениям
Вы можете скачивать файлы
Яндекс.Метрика

Материал для зрителей старше 18 летВсе материалы на сайте получены из свободных источников в сети Интернет и представлены исключительно для личного (некоммерческого) использования лицами старше 18 лет.