Тёмная материя / Dark Matter [S01] (2024) UHD WEB-DL 2160p | 4K | SDR | P

Ответить на тему
Статистика раздачи [Обновить пиров]
Размер:  86.03 GB   |    Зарегистрирован:  8 дней   |    .torrent скачан:  1 раз
Раздают:  43  [  0 KB/s  ]   Качают:  36  [  0 KB/s  ]   Подробная статистика пиров
   
 
Автор Сообщение

ExPlayer ®

Оффлайн

Медали


Пол: Мужской

Стаж: 9 лет 8 месяцев

Наличие запрета:

Сообщений: 62339

Откуда: korsars.pro

Отдача: 100 Mb/s

Загрузка: 100 Mb/s



AdGuard VPN - бесплатный, надёжный и быстрый VPN

Создавать темы 04-Июл-2024 17:02

[Цитировать]

Название: Тёмная материя
Оригинальное название: Dark Matter
Год выхода: 2024
Производство: США / Matt Tolmach Productions, Sony Pictures Television
Жанр: Фантастика, триллер, драма
Перевод: Профессиональный многоголосый
Продолжительность: 09х ~00:50:00
Режиссёры: Якоб Вербрюгген, Роксанн Доусон, Логан Джордж, Селин Хелд, Алик Сахаров
В ролях: Джоэл Эдгертон, Дженнифер Коннелли, Оукс Фегли, Алиси Брага, Джимми Симпсон, Дайо Окенийи, Аманда Бругел, Джимми Стикс
Описание: Физик Джейсон Дессен из Чикаго оказывается в альтернативной версии свой жизни. Чтобы вернуться к своей семье, он должен будет пройти через ряд параллельных реальностей и столкнуться с альтернативной версией самого себя.
Формат: MKV
Качество: WEB-DL 2160p
Видео: MPEGH HEVC / ~20,6 Mbps / 3840x1920 / 0.116 Бит/(Пиксели*Кадры) / 23.976 fps
Аудио 01: E-AC3, 6 ch, 768 kbps | Русский, MVO | HDRezka Studio |
Аудио 02: E-AC3, 6 ch, 768 kbps | Русский, MVO | LostFilm |
Аудио 03: E-AC3, 6 ch, 768 kbps | Русский, MVO | Jaskier |
Аудио 04: AC-3, 6 ch, 384-448 kbps | Русский, MVO | TVShows |
Аудио 05: E-AC3, 6 ch, 768 kbps | Русский, MVO | NewComers |
Аудио 06: AC-3, 2 ch, 192 kbps | Русский, MVO | Red Head Sound |
Аудио 07: E-AC3, 6 ch, 768 kbps | Украинский, MVO | DniproFilm |
Аудио 08: E-AC3 JOC, 6 ch, 768 kbps | Английский |
Субтитры: Русские (Forced, Full), Английские (Full, SDH)

Mediainfo

Общее
Уникальный идентификатор : 10137335706648965374957413170221656445 (0x7A0613D27399222C8BA05867F8FA97D)
Полное имя : E:Dark.Matter.S01E01.2160p.WEB-DL.mkv
Формат : Matroska
Версия формата : Version 4
Размер файла : 8,34 Гбайт
Продолжительность : 46 мин. 15 с.
Общий битрейт : 25,8 Мбит/сек
Частота кадров : 23,976 кадра/сек
Название фильма : Dark Matter 01x01 - Release by Wentworth_Miller
Дата кодирования : 2024-05-20 08:37:23 UTC
Программа кодирования : mkvmerge v80.0 ('Roundabout') 64-bit
Библиотека кодирования : libebml v1.4.4 + libmatroska v1.7.1
Обложка : Yes
Attachments : Cover3.png
Видео
Идентификатор : 1
Формат : HEVC
Формат/Информация : High Efficiency Video Coding
Профиль формата : Main 10@L5@High
Идентификатор кодека : V_MPEGH/ISO/HEVC
Продолжительность : 46 мин. 15 с.
Битрейт : 20,6 Мбит/сек
Ширина : 3 840 пикселей
Высота : 1 920 пикселей
Соотношение сторон дисплея : 2,000
Режим частоты кадров : Постоянный
Частота кадров : 23,976 кадра/сек
Цветовое пространство : YUV
Цветовая субдискретизация : 4:2:0
Битовая глубина : 10 бит
Бит/(Пиксели*Кадры) : 0.116
Размер потока : 6,64 Гбайт (80%)
Заголовок : Are You Happy in Your Life?
Язык : Английский
По умолчанию : Да
Принудительно : Нет
Цветовой диапазон : Limited
Основные цвета : BT.709
Характеристики трансфера : BT.709
Коэффициенты матрицы : BT.709
Аудио #1
Идентификатор : 2
Формат : E-AC-3
Формат/Информация : Enhanced AC-3
Коммерческое название : Dolby Digital Plus
Идентификатор кодека : A_EAC3
Продолжительность : 46 мин. 15 с.
Вид битрейта : Постоянный
Битрейт : 768 Кбит/сек
Канал(-ы) : 6 каналов
Расположение каналов : L R C LFE Ls Rs
Частота дискретизации : 48,0 КГц
Частота кадров : 31,250 кадров/сек (1536 SPF)
Метод сжатия : С потерями
Размер потока : 254 Мбайт (3%)
Заголовок : HDRezka Studio
Язык : Русский
Вид сервиса : Complete Main
По умолчанию : Да
Принудительно : Нет
Нормализация звука речи : -27 dB
compr : -0.28 dB
mixlevel : 105 dB
dmixmod : Lo/Ro
ltrtcmixlev : -3.0 dB
ltrtsurmixlev : -3.0 dB
lorocmixlev : -3.0 dB
lorosurmixlev : -3.0 dB
dialnorm_Average : -27 dB
dialnorm_Minimum : -27 dB
dialnorm_Maximum : -27 dB
Аудио #2
Идентификатор : 3
Формат : E-AC-3
Формат/Информация : Enhanced AC-3
Коммерческое название : Dolby Digital Plus
Идентификатор кодека : A_EAC3
Продолжительность : 46 мин. 15 с.
Вид битрейта : Постоянный
Битрейт : 768 Кбит/сек
Канал(-ы) : 6 каналов
Расположение каналов : L R C LFE Ls Rs
Частота дискретизации : 48,0 КГц
Частота кадров : 31,250 кадров/сек (1536 SPF)
Метод сжатия : С потерями
Размер потока : 254 Мбайт (3%)
Заголовок : LostFilm
Язык : Русский
Вид сервиса : Complete Main
По умолчанию : Нет
Принудительно : Нет
Нормализация звука речи : -27 dB
compr : -0.28 dB
mixlevel : 105 dB
dmixmod : Lo/Ro
ltrtcmixlev : -3.0 dB
ltrtsurmixlev : -3.0 dB
lorocmixlev : -3.0 dB
lorosurmixlev : -3.0 dB
dialnorm_Average : -27 dB
dialnorm_Minimum : -27 dB
dialnorm_Maximum : -27 dB
Аудио #3
Идентификатор : 4
Формат : E-AC-3
Формат/Информация : Enhanced AC-3
Коммерческое название : Dolby Digital Plus
Идентификатор кодека : A_EAC3
Продолжительность : 46 мин. 15 с.
Вид битрейта : Постоянный
Битрейт : 768 Кбит/сек
Канал(-ы) : 6 каналов
Расположение каналов : L R C LFE Ls Rs
Частота дискретизации : 48,0 КГц
Частота кадров : 31,250 кадров/сек (1536 SPF)
Метод сжатия : С потерями
Размер потока : 254 Мбайт (3%)
Заголовок : Jaskier
Язык : Русский
Вид сервиса : Complete Main
По умолчанию : Нет
Принудительно : Нет
Нормализация звука речи : -27 dB
compr : -0.28 dB
mixlevel : 105 dB
dmixmod : Lo/Ro
ltrtcmixlev : -3.0 dB
ltrtsurmixlev : -3.0 dB
lorocmixlev : -3.0 dB
lorosurmixlev : -3.0 dB
dialnorm_Average : -27 dB
dialnorm_Minimum : -27 dB
dialnorm_Maximum : -27 dB
Аудио #4
Идентификатор : 5
Формат : AC-3
Формат/Информация : Audio Coding 3
Коммерческое название : Dolby Digital
Идентификатор кодека : A_AC3
Продолжительность : 46 мин. 15 с.
Вид битрейта : Постоянный
Битрейт : 448 Кбит/сек
Канал(-ы) : 6 каналов
Расположение каналов : L R C LFE Ls Rs
Частота дискретизации : 48,0 КГц
Частота кадров : 31,250 кадров/сек (1536 SPF)
Метод сжатия : С потерями
Размер потока : 148 Мбайт (2%)
Заголовок : TVShows
Язык : Русский
Вид сервиса : Complete Main
По умолчанию : Нет
Принудительно : Нет
Нормализация звука речи : -31 dB
cmixlev : -4.5 dB
surmixlev : -6 dB
dialnorm_Average : -31 dB
dialnorm_Minimum : -31 dB
dialnorm_Maximum : -31 dB
Аудио #5
Идентификатор : 6
Формат : E-AC-3
Формат/Информация : Enhanced AC-3
Коммерческое название : Dolby Digital Plus
Идентификатор кодека : A_EAC3
Продолжительность : 46 мин. 15 с.
Вид битрейта : Постоянный
Битрейт : 768 Кбит/сек
Канал(-ы) : 6 каналов
Расположение каналов : L R C LFE Ls Rs
Частота дискретизации : 48,0 КГц
Частота кадров : 31,250 кадров/сек (1536 SPF)
Метод сжатия : С потерями
Размер потока : 254 Мбайт (3%)
Заголовок : NewComers
Язык : Русский
Вид сервиса : Complete Main
По умолчанию : Нет
Принудительно : Нет
Нормализация звука речи : -27 dB
compr : -0.28 dB
mixlevel : 105 dB
dmixmod : Lo/Ro
ltrtcmixlev : -3.0 dB
ltrtsurmixlev : -3.0 dB
lorocmixlev : -3.0 dB
lorosurmixlev : -3.0 dB
dialnorm_Average : -27 dB
dialnorm_Minimum : -27 dB
dialnorm_Maximum : -27 dB
Аудио #6
Идентификатор : 7
Формат : AC-3
Формат/Информация : Audio Coding 3
Коммерческое название : Dolby Digital
Идентификатор кодека : A_AC3
Продолжительность : 46 мин. 15 с.
Вид битрейта : Постоянный
Битрейт : 192 Кбит/сек
Канал(-ы) : 2 канала
Расположение каналов : L R
Частота дискретизации : 48,0 КГц
Частота кадров : 31,250 кадров/сек (1536 SPF)
Метод сжатия : С потерями
Размер потока : 63,5 Мбайт (1%)
Заголовок : Red Head Sound
Язык : Русский
Вид сервиса : Complete Main
По умолчанию : Нет
Принудительно : Нет
Нормализация звука речи : -26 dB
compr : -0.28 dB
ltrtcmixlev : -3.0 dB
ltrtsurmixlev : -3.0 dB
lorocmixlev : -3.0 dB
lorosurmixlev : -3.0 dB
dialnorm_Average : -26 dB
dialnorm_Minimum : -26 dB
dialnorm_Maximum : -26 dB
Аудио #7
Идентификатор : 8
Формат : E-AC-3
Формат/Информация : Enhanced AC-3
Коммерческое название : Dolby Digital Plus
Идентификатор кодека : A_EAC3
Продолжительность : 46 мин. 15 с.
Вид битрейта : Постоянный
Битрейт : 768 Кбит/сек
Канал(-ы) : 6 каналов
Расположение каналов : L R C LFE Ls Rs
Частота дискретизации : 48,0 КГц
Частота кадров : 31,250 кадров/сек (1536 SPF)
Метод сжатия : С потерями
Размер потока : 254 Мбайт (3%)
Заголовок : DniproFilm
Язык : Украинский
Вид сервиса : Complete Main
По умолчанию : Нет
Принудительно : Нет
Нормализация звука речи : -27 dB
compr : -0.28 dB
mixlevel : 105 dB
dmixmod : Lo/Ro
ltrtcmixlev : -3.0 dB
ltrtsurmixlev : -3.0 dB
lorocmixlev : -3.0 dB
lorosurmixlev : -3.0 dB
dialnorm_Average : -27 dB
dialnorm_Minimum : -27 dB
dialnorm_Maximum : -27 dB
Аудио #8
Идентификатор : 9
Формат : E-AC-3 JOC
Формат/Информация : Enhanced AC-3 with Joint Object Coding
Коммерческое название : Dolby Digital Plus with Dolby Atmos
Идентификатор кодека : A_EAC3
Продолжительность : 46 мин. 15 с.
Вид битрейта : Постоянный
Битрейт : 768 Кбит/сек
Канал(-ы) : 6 каналов
Расположение каналов : L R C LFE Ls Rs
Частота дискретизации : 48,0 КГц
Частота кадров : 31,250 кадров/сек (1536 SPF)
Метод сжатия : С потерями
Размер потока : 254 Мбайт (3%)
Язык : Английский
Вид сервиса : Complete Main
По умолчанию : Нет
Принудительно : Нет
Показатель сложности : 16
Количество динамических объектов : 15
Число каналов бэда : 1 канал
Конфигурация каналов бэда : LFE
Нормализация звука речи : -27 dB
compr : -0.28 dB
dialnorm_Average : -27 dB
dialnorm_Minimum : -27 dB
dialnorm_Maximum : -27 dB
Текст #1
Идентификатор : 10
Формат : UTF-8
Идентификатор кодека : S_TEXT/UTF8
Идентификатор кодека/Информация : UTF-8 Plain Text
Продолжительность : 40 мин. 49 с.
Битрейт : 3 бит/сек
Частота кадров : 0,007 кадр/сек
Число элементов : 16
Размер потока : 986 байт (0%)
Заголовок : Forced
Язык : Русский
По умолчанию : Нет
Принудительно : Да
Текст #2
Идентификатор : 11
Формат : UTF-8
Идентификатор кодека : S_TEXT/UTF8
Идентификатор кодека/Информация : UTF-8 Plain Text
Продолжительность : 44 мин. 14 с.
Битрейт : 61 бит/сек
Частота кадров : 0,177 кадр/сек
Число элементов : 470
Размер потока : 19,9 КиБ (0%)
Язык : Русский
По умолчанию : Нет
Принудительно : Нет
Текст #3
Идентификатор : 12
Формат : UTF-8
Идентификатор кодека : S_TEXT/UTF8
Идентификатор кодека/Информация : UTF-8 Plain Text
Продолжительность : 44 мин. 14 с.
Битрейт : 61 бит/сек
Частота кадров : 0,177 кадр/сек
Число элементов : 470
Размер потока : 20,1 КиБ (0%)
Язык : Украинский
По умолчанию : Нет
Принудительно : Нет
Текст #4
Идентификатор : 13
Формат : UTF-8
Идентификатор кодека : S_TEXT/UTF8
Идентификатор кодека/Информация : UTF-8 Plain Text
Продолжительность : 42 мин. 32 с.
Битрейт : 41 бит/сек
Частота кадров : 0,176 кадр/сек
Число элементов : 450
Размер потока : 13,0 КиБ (0%)
Язык : Английский
По умолчанию : Нет
Принудительно : Нет
Текст #5
Идентификатор : 14
Формат : UTF-8
Идентификатор кодека : S_TEXT/UTF8
Идентификатор кодека/Информация : UTF-8 Plain Text
Продолжительность : 44 мин. 57 с.
Битрейт : 51 бит/сек
Частота кадров : 0,210 кадр/сек
Число элементов : 566
Размер потока : 17,0 КиБ (0%)
Заголовок : SDH
Язык : Английский
По умолчанию : Нет
Принудительно : Нет
Текст #6
Идентификатор : 15
Формат : UTF-8
Идентификатор кодека : S_TEXT/UTF8
Идентификатор кодека/Информация : UTF-8 Plain Text
Продолжительность : 44 мин. 14 с.
Битрейт : 60 бит/сек
Частота кадров : 0,177 кадр/сек
Число элементов : 469
Размер потока : 19,6 КиБ (0%)
Язык : Иврит
По умолчанию : Нет
Принудительно : Нет
Меню
00:00:00.000 : en:Studio Logo
00:00:08.843 : en:Main
00:45:10.833 : en:Credits

Скриншоты


AdGuard VPN - бесплатный, надёжный и быстрый VPN
[korsars.pro].t105599.torrent 
Торрент: Зарегистрирован [ 2024-07-04 17:02 ] · 225E1851997CC0C0E8EB9977D2CA46FFA67966D8

Скачать .torrent

Размер .torrent файла 432 KB

Статус: проверено
.torrent скачан: 1 раз
Размер: 86.03 GB
Правила

AdGuard VPN - бесплатный, надёжный и быстрый VPN
Похожие темы

Вы не зарегистрированы на нашем сайте. Вам доступна для скачивания только часть контента. Чтобы увидеть весь контент сайта, пожалуйста, зарегистрируйтесь.

Дешевый и быстрый Сидбокс
У Вас отключен VIP статус, поэтому Вам показывается реклама на сайте. Вы можете поддержать наш ресурс и приобрести VIP статус, тем самым отключив показ рекламы на сайте, а ещё VIP пользователи получают 15 инвайтов, которыми можно поделиться с друзьями или знакомыми.
Дешевый и быстрый Сидбокс
AdGuard - Интернет без рекламы и слежки в любом браузере
[Профиль] [ЛС]
Показать сообщения:    
Ответить на тему

Текущее время: 13-Июл 09:47

Часовой пояс: UTC + 4



Вы не можете начинать темы
Вы не можете отвечать на сообщения
Вы не можете редактировать свои сообщения
Вы не можете удалять свои сообщения
Вы не можете голосовать в опросах
Вы не можете прикреплять файлы к сообщениям
Вы можете скачивать файлы
Яндекс.Метрика

Материал для зрителей старше 18 летВсе материалы на сайте получены из свободных источников в сети Интернет и представлены исключительно для личного (некоммерческого) использования лицами старше 18 лет.