Полицейский из Беверли-Хиллз: Аксель Фоули / Beverly Hills Cop: Axel F (2024) WEB-DLRip от New-Team | D

Ответить на тему
Статистика раздачи [Обновить пиров]
Размер:  1.46 GB   |    Зарегистрирован:  9 дней   |    .torrent скачан:  0 раз
Раздают:  4035  [  0 KB/s  ]   Качают:  695  [  0 KB/s  ]   Подробная статистика пиров
   
 
Автор Сообщение

ExPlayer ®

Оффлайн

Медали


Пол: Мужской

Стаж: 9 лет 8 месяцев

Наличие запрета:

Сообщений: 62339

Откуда: korsars.pro

Отдача: 100 Mb/s

Загрузка: 100 Mb/s



AdGuard VPN - бесплатный, надёжный и быстрый VPN

Создавать темы 03-Июл-2024 17:02

[Цитировать]


Полицейский из Беверли-Хиллз: Аксель Фоули / Beverly Hills Cop: Axel F
Год выпуска: 2024
Выпущено: США / Don Simpson/Jerry Bruckheimer Films, Eddie Murphy Productions
Жанр: боевик, триллер, комедия, криминал
Режиссер: Марк Моллой / Mark Molloy
В ролях: Эдди Мерфи, Джадж Райнхолд, Джозеф Гордон-Левитт, Кевин Бейкон, Бронсон Пиншо, Джон Эштон, Пол Райзер, Тейлор Пейдж, Сара Старк, Джеймс Роджерс, Патриша Белчер, Эффион Крокетт, Сюзанн Форд, Джованни Крус, Сара Эбрелл
О фильме: Детектив Аксель Фоули снова возвращается на улицы Беверли-Хиллз. После того, как жизнь его дочери Джейн оказывается в опасности, они объединяют силы с новым партнером, детективом Бобби Эбботом, и старыми приятелями — Билли Роузвудом и Джоном Тэггартом, чтобы задать жару негодяям и раскрыть преступный заговор.

Продолжительность: 01:57:56
Перевод: Профессиональный (полное дублирование) | Videofilm Int.
Субтитры: Русские (forced, full), английские [отдельно]
Раздача от :
Формат: AVI
Качество: WEB-DLRip
Видео: 720x304 (2.35:1), 24,000 fps, XviD MPEG-4 ~ 1381 kbps avg, 0.263 bit/pixel, build 74
Аудио: 48 kHz, AC3 Dolby Digital, 3/2 (L,C,R,l,r) + LFE ch, ~ 384 kbps | RUS |-

MediaInfo

Общее
Полное имя : D:TorrentsBeverly.Hills.Cop.Axel.F.2024.WEB-DLRip_от New-TeamBeverly.Hills.Cop.Axel.F.2024.WEB-DLRip_от New-Team.avi
Формат : AVI
Формат/Информация : Audio Video Interleave
Размер файла : 1,46 Гбайт
Продолжительность : 1 ч. 57 м.
Общий поток : 1 775 Кбит/сек
Программа кодирования : VirtualDubMod 1.5.10.2 (build 2540/release)
Библиотека кодирования : VirtualDubMod build 2540/release
Видео
Идентификатор : 0
Формат : MPEG-4 Visual
Профиль формата : Advanced Simple@L5
Настройки формата : BVOP1 / Custom Matrix
Параметр BVOP формата : 1
Параметр QPel формата : Нет
Параметр GMC формата : Без точки перехода
Параметр матрицы формата : Выборочная
Идентификатор кодека : XVID
Идентификатор кодека/Подсказка : XviD
Продолжительность : 1 ч. 57 м.
Битрейт : 1 381 Кбит/сек
Ширина : 720 пикселей
Высота : 304 пикселя
Соотношение сторон : 2,35:1
Частота кадров : 24,000 кадра/сек
Цветовое пространство : YUV
Субдискретизация насыщенности : 4:2:0
Битовая глубина : 8 бит
Тип развёртки : Прогрессивная
Метод сжатия : С потерями
Бит/(Пиксели*Кадры) : 0.263
Размер потока : 1,14 Гбайт (78%)
Библиотека кодирования : XviD 74
Аудио
Идентификатор : 1
Формат : AC-3
Формат/Информация : Audio Coding 3
Коммерческое название : Dolby Digital
Идентификатор кодека : 2000
Продолжительность : 1 ч. 57 м.
Вид битрейта : Постоянный
Битрейт : 384 Кбит/сек
Каналы : 6 каналов
Channel layout : L R C LFE Ls Rs
Частота : 48,0 КГц
Частота кадров : 31,250 кадров/сек (1536 SPF)
Метод сжатия : С потерями
Размер потока : 324 Мбайт (22%)
Выравнивание : Разделение по промежуткам
Продолжительность промежутка : 42 мс. (1,00 видеокадр)
Время предзагрузки промежутка : 500 мс.
Service kind : Complete Main
AdGuard VPN - бесплатный, надёжный и быстрый VPN
[korsars.pro].t105536.torrent 
Торрент: Зарегистрирован [ 2024-07-03 17:02 ] · 8FEF3970957B7F060F00BFF3BC66F2CF25413DD9

Скачать .torrent

Размер .torrent файла 60 KB

Статус: проверено
.torrent скачан: 0 раз
Размер: 1.46 GB
Правила

AdGuard VPN - бесплатный, надёжный и быстрый VPN
Похожие темы

Вы не зарегистрированы на нашем сайте. Вам доступна для скачивания только часть контента. Чтобы увидеть весь контент сайта, пожалуйста, зарегистрируйтесь.

Дешевый и быстрый Сидбокс
У Вас отключен VIP статус, поэтому Вам показывается реклама на сайте. Вы можете поддержать наш ресурс и приобрести VIP статус, тем самым отключив показ рекламы на сайте, а ещё VIP пользователи получают 15 инвайтов, которыми можно поделиться с друзьями или знакомыми.
Дешевый и быстрый Сидбокс
AdGuard - Интернет без рекламы и слежки в любом браузере
[Профиль] [ЛС]
Показать сообщения:    
Ответить на тему

Текущее время: 13-Июл 11:48

Часовой пояс: UTC + 4



Вы не можете начинать темы
Вы не можете отвечать на сообщения
Вы не можете редактировать свои сообщения
Вы не можете удалять свои сообщения
Вы не можете голосовать в опросах
Вы не можете прикреплять файлы к сообщениям
Вы можете скачивать файлы
Яндекс.Метрика

Материал для зрителей старше 18 летВсе материалы на сайте получены из свободных источников в сети Интернет и представлены исключительно для личного (некоммерческого) использования лицами старше 18 лет.