Воображаемые друзья / IF (2024) WEB-DLRip от DoMiNo & селезень | P | Jaskier

Ответить на тему
Статистика раздачи [Обновить пиров]
Размер:  1.46 GB   |    Зарегистрирован:  21 день   |    .torrent скачан:  2 раза
Раздают:  247  [  0 KB/s  ]   Качают:  34  [  0 KB/s  ]   Подробная статистика пиров
   
 
Автор Сообщение

ExPlayer ®

Оффлайн

Медали


Пол: Мужской

Стаж: 9 лет 8 месяцев

Наличие запрета:

Сообщений: 62339

Откуда: korsars.pro

Отдача: 100 Mb/s

Загрузка: 100 Mb/s



AdGuard VPN - бесплатный, надёжный и быстрый VPN

Создавать темы 21-Июн-2024 13:02

[Цитировать]

Информация о фильме
Название: Воображаемые друзья
Оригинальное название: IF
Год выхода: 2024
Жанр: фэнтези, мультфильм, драма, комедия, семейный
Режиссер: Джон Красински
В ролях: Кэйли Флеминг, Райан Рейнольдс, Джон Красински, Фиона Шоу, Стив Карелл, Фиби Уоллер-Бридж, Луис Госсетт мл., Алан С. Ким, Лайза Колон-Зайас, Бобби Мойнахан

О фильме:
Что если выдуманные приятели детей существуют на самом деле и никуда не исчезают, когда ребенок взрослеет? В таком мире живет Беа — похоронившая мать 12-летняя девочка, которая однажды замечает огромного фиолетового монстра, гуляющего по улицам Нью-Йорка. Девочке быстро объясняют, как на самом деле устроен мир, поэтому Беа решает напоминать скучным взрослым о тех, кого они когда-то забыли.
Страна: США, Канада
Студия: Maximum Effort, Paramount Pictures, Platinum Dunes
Продолжительность: 01:47:25
Перевод: Профессиональный (многоголосый закадровый) | Jaskier
Файл
Формат: AVI
Качество: WEB-DLRip
Видео: 704x384 at 23.976 fps, XviD 69, ~1558 kbps
Аудио: AC3, 6 ch, ~384 kbps - | Русский |
Субтитры: Нет
***Рип от: -=DoMiNo=-

M/I

General
Complete name : S:IF.2024.P.WEB-DLRip.seleZen.avi
Format : AVI
Format/Info : Audio Video Interleave
Format settings : BitmapInfoHeader / WaveFormatEx
File size : 1.46 GiB
Duration : 1 h 47 min
Overall bit rate : 1 951 kb/s
Frame rate : 23.976 FPS
Movie name : IF.2024.MVO.WEB-DLRip.seleZen
Writing application : VirtualDubModRus 1.5.10.2 (build 2542/release)
Writing library : VirtualDubMod build 2542/release
Copyright : -=DoMiNo=-
Video
ID : 0
Format : MPEG-4 Visual
Format profile : Advanced Simple@L5
Format settings : BVOP1 / Custom Matrix
Format settings, BVOP : 1
Format settings, QPel : No
Format settings, GMC : No warppoints
Format settings, Matrix : Custom
Codec ID : XVID
Codec ID/Hint : XviD
Duration : 1 h 47 min
Bit rate : 1 558 kb/s
Width : 704 pixels
Height : 384 pixels
Display aspect ratio : 1.85:1
Frame rate : 23.976 (24000/1001) FPS
Color space : YUV
Chroma subsampling : 4:2:0
Bit depth : 8 bits
Scan type : Progressive
Compression mode : Lossy
Bits/(Pixel*Frame) : 0.240
Stream size : 1.17 GiB (80%)
Writing library : XviD 69
Audio
ID : 1
Format : AC-3
Format/Info : Audio Coding 3
Commercial name : Dolby Digital
Codec ID : 2000
Duration : 1 h 47 min
Bit rate mode : Constant
Bit rate : 384 kb/s
Channel(s) : 6 channels
Channel layout : L R C LFE Ls Rs
Sampling rate : 48.0 kHz
Frame rate : 31.250 FPS (1536 SPF)
Compression mode : Lossy
Stream size : 295 MiB (20%)
Alignment : Split across interleaves
Interleave, duration : 42 ms (1.00 video frame)
Interleave, preload duratio : 500 ms
Service kind : Complete Main
Dialog Normalization : -31 dB
cmixlev : -4.5 dB
surmixlev : -6 dB
dialnorm_Average : -31 dB
dialnorm_Minimum : -31 dB
dialnorm_Maximum : -31 dB
Релиз: Присоединяйся к: Кликай на баннеры.
AdGuard VPN - бесплатный, надёжный и быстрый VPN
[korsars.pro].t104909.torrent 
Торрент: Зарегистрирован [ 2024-06-21 13:02 ] · 7D3C5657CB29F6EF9429E77F30D4A18FAA168B8B

Скачать .torrent

Размер .torrent файла 59 KB

Статус: проверено
.torrent скачан: 2 раз
Размер: 1.46 GB
Правила

AdGuard VPN - бесплатный, надёжный и быстрый VPN
Похожие темы

Вы не зарегистрированы на нашем сайте. Вам доступна для скачивания только часть контента. Чтобы увидеть весь контент сайта, пожалуйста, зарегистрируйтесь.

Дешевый и быстрый Сидбокс
У Вас отключен VIP статус, поэтому Вам показывается реклама на сайте. Вы можете поддержать наш ресурс и приобрести VIP статус, тем самым отключив показ рекламы на сайте, а ещё VIP пользователи получают 15 инвайтов, которыми можно поделиться с друзьями или знакомыми.
Дешевый и быстрый Сидбокс
AdGuard - Интернет без рекламы и слежки в любом браузере
[Профиль] [ЛС]
Показать сообщения:    
Ответить на тему

Текущее время: 13-Июл 11:52

Часовой пояс: UTC + 4



Вы не можете начинать темы
Вы не можете отвечать на сообщения
Вы не можете редактировать свои сообщения
Вы не можете удалять свои сообщения
Вы не можете голосовать в опросах
Вы не можете прикреплять файлы к сообщениям
Вы можете скачивать файлы
Яндекс.Метрика

Материал для зрителей старше 18 летВсе материалы на сайте получены из свободных источников в сети Интернет и представлены исключительно для личного (некоммерческого) использования лицами старше 18 лет.