Воображаемые друзья / IF (2024) WEB-DLRip от AR-Team | P | Jaskier

Ответить на тему
Статистика раздачи [Обновить пиров]
Размер:  1.46 GB   |    Зарегистрирован:  21 день   |    .torrent скачан:  0 раз
Раздают:  49  [  0 KB/s  ]   Качают:  31  [  0 KB/s  ]   Подробная статистика пиров
   
 
Автор Сообщение

ExPlayer ®

Оффлайн

Медали


Пол: Мужской

Стаж: 9 лет 8 месяцев

Наличие запрета:

Сообщений: 62299

Откуда: korsars.pro

Отдача: 100 Mb/s

Загрузка: 100 Mb/s



AdGuard VPN - бесплатный, надёжный и быстрый VPN

Создавать темы 21-Июн-2024 09:02

[Цитировать]


Информация о фильме
Название: Воображаемые друзья
Оригинальное название: IF
Год выхода: 2024
Жанр: мультфильм, фэнтези, драма, комедия, семейный
Режиссер: Джон Красински
В ролях: Кэйли Флеминг, Райан Рейнольдс, Джон Красински, Фиона Шоу, Стив Карелл, Фиби Уоллер-Бридж, Луис Госсет мл., Алан С. Ким, Лиза Колон-Зайас, Бобби Мойнахан
О фильме:
Беа заводит знакомства с воображаемыми друзьями, которых бросили их хозяева.

Страна: США, Канада
Студия: Paramount Pictures, Maximum Effort, Platinum Dunes
Продолжительность: 01:47:25
Перевод: Профессиональный (многоголосый, закадровый) | Jaskier
Файл
Формат: AVI
Кодек: XviD
Качество: WEB-DLRip
Видео: 704x384 at 23.976 fps, Xvid, ~1548 kbps
Звук: AC3, 6 ch, ~384 kbps - | Русский
Субтитры: Английские (full) - отдельно
Семпл

Скриншоты

MediaInfo:

General
Complete name : If.2024.WEB-DLRip.AR-Team.avi
Format : AVI
Format/Info : Audio Video Interleave
Format settings : BitmapInfoHeader / WaveFormatEx
File size : 1.46 GiB
Duration : 1 h 47 min
Overall bit rate : 1 941 kb/s
Frame rate : 23.976 FPS
Writing application : VirtualDubMod 1.5.10.3 | (build 2550/release)
Writing library : VirtualDubMod build 2550/release
Video
ID : 0
Format : MPEG-4 Visual
Format profile : Advanced Simple@L5
Format settings : BVOP1 / Custom Matrix
Format settings, BVOP : 1
Format settings, QPel : No
Format settings, GMC : No warppoints
Format settings, Matrix : Custom
Codec ID : XVID
Codec ID/Hint : XviD
Duration : 1 h 47 min
Bit rate : 1 548 kb/s
Width : 704 pixels
Height : 384 pixels
Display aspect ratio : 1.85:1
Frame rate : 23.976 (24000/1001) FPS
Color space : YUV
Chroma subsampling : 4:2:0
Bit depth : 8 bits
Scan type : Progressive
Compression mode : Lossy
Bits/(Pixel*Frame) : 0.239
Stream size : 1.16 GiB (80%)
Writing library : XviD 73
Audio
ID : 1
Format : AC-3
Format/Info : Audio Coding 3
Commercial name : Dolby Digital
Codec ID : 2000
Duration : 1 h 47 min
Bit rate mode : Constant
Bit rate : 384 kb/s
Channel(s) : 6 channels
Channel layout : L R C LFE Ls Rs
Sampling rate : 48.0 kHz
Frame rate : 31.250 FPS (1536 SPF)
Compression mode : Lossy
Stream size : 295 MiB (20%)
Alignment : Split across interleaves
Interleave, duration : 42 ms (1.00 video frame)
Interleave, preload duration : 500 ms
Service kind : Complete Main
Dialog Normalization : -31 dB
cmixlev : -3.0 dB
surmixlev : -3 dB
dialnorm_Average : -31 dB
dialnorm_Minimum : -31 dB
dialnorm_Maximum : -31 dB
Релиз от:
AdGuard VPN - бесплатный, надёжный и быстрый VPN
[korsars.pro].t104904.torrent 
Торрент: Зарегистрирован [ 2024-06-21 09:02 ] · 06A56EDFB27D356896EE92C3F4B552520810E8A5

Скачать .torrent

Размер .torrent файла 59 KB

Статус: проверено
.torrent скачан: 0 раз
Размер: 1.46 GB
Правила

AdGuard VPN - бесплатный, надёжный и быстрый VPN
Похожие темы

Вы не зарегистрированы на нашем сайте. Вам доступна для скачивания только часть контента. Чтобы увидеть весь контент сайта, пожалуйста, зарегистрируйтесь.

Дешевый и быстрый Сидбокс
У Вас отключен VIP статус, поэтому Вам показывается реклама на сайте. Вы можете поддержать наш ресурс и приобрести VIP статус, тем самым отключив показ рекламы на сайте, а ещё VIP пользователи получают 15 инвайтов, которыми можно поделиться с друзьями или знакомыми.
Дешевый и быстрый Сидбокс
AdGuard - Интернет без рекламы и слежки в любом браузере
[Профиль] [ЛС]
Показать сообщения:    
Ответить на тему

Текущее время: 12-Июл 19:17

Часовой пояс: UTC + 4



Вы не можете начинать темы
Вы не можете отвечать на сообщения
Вы не можете редактировать свои сообщения
Вы не можете удалять свои сообщения
Вы не можете голосовать в опросах
Вы не можете прикреплять файлы к сообщениям
Вы можете скачивать файлы
Яндекс.Метрика

Материал для зрителей старше 18 летВсе материалы на сайте получены из свободных источников в сети Интернет и представлены исключительно для личного (некоммерческого) использования лицами старше 18 лет.