На пути к небесам / Move to Heaven / Mubeu tu haebeun: naneun yupumjeongrisaimnida [S01] (2021) WEB-DL 1080p | P | TVShows

Ответить на тему
Статистика раздачи [Обновить пиров]
Размер:  12.53 GB   |    Зарегистрирован:  27 дней   |    .torrent скачан:  0 раз
Раздают:  36  [  0 KB/s  ]   Качают:  16  [  0 KB/s  ]   Подробная статистика пиров
   
 
Автор Сообщение

ExPlayer ®

Оффлайн

Медали


Пол: Мужской

Стаж: 9 лет 8 месяцев

Наличие запрета:

Сообщений: 62339

Откуда: korsars.pro

Отдача: 100 Mb/s

Загрузка: 100 Mb/s



AdGuard VPN - бесплатный, надёжный и быстрый VPN

Создавать темы 15-Июн-2024 21:02

[Цитировать]


Информация о фильме
Название: На пути к небесам
Оригинальное название: Move to Heaven / Mubeu tu haebeun: naneun yupumjeongrisaimnida
Год выхода: 2021
Жанр: драма
Режиссер: Ким Сон-хо
В ролях: Тхан Джун-сан, Ли Джэ-хун, Хон Сын-хи, Чи Джин-хи, Ли Джэ-ук, Ю Сон, Пак Чи-е, Ким До-ён
О фильме:
Вдовец Хан Джон-у вместе с 20-летним сыном Гы-ру, у которого синдром Аспергера, ведёт фирму по уборке квартир умерших под названием «На пути к небесам». Они с большим уважением относятся к памяти своих клиентов и собирают важные вещи почивших, чтобы передать родственникам и близким. Внезапно Джон-у умирает от сердечной недостаточности, и по завещанию права на опекунство Гы-ру переходят к его только что вышедшему из тюрьмы младшему брату Чо Сан-гу. Чтобы стать полноправным опекуном, Сан-гу должен три месяца вести себя хорошо, жить в квартире с племянником и заниматься семейным бизнесом.

Страна: Южная Корея
Студия: Netflix, Number Three Pictures, Page 1 Films
Продолжительность: 00:50:00 серия
Перевод: Профессиональный (многоголосый закадровый) TVShows
В соседней раздаче старая версия дорожки TVShows (пережатка AAC >> AC3), со времен, когда у них не было еще AC3 звука. Ее и скачать не удалось, за сутки скачалось 0,5%. Они гораздо позже перегнали все свои студийные вавки в нормальный высокобитрейтный AC3 звук. В этой раздаче русская аудиодорожка не пережималась.
Файл
Качество: WEB-DL 1080p (Neflix)
Видео: 1920x1080 at 23.976 fps, MPEG-4 AVC, ~2400 kbps avg
Аудио 1: 48 kHz, AC3, 3/2 (L,C,R,l,r) + LFE ch, ~448 kbps avg | Russian
Аудио 2: 48 kHz, E-AC3, 3/2 (L,C,R,l,r) + LFE ch, ~640 kbps avg | Korean
Субтитры: русские, английские, корейские (Forced, SDH), немецкие, испанские, французские, итальянские, португальские
Семпл

Скриншоты


MediaInfo

Общее
Уникальный идентификатор : 305138756034245590850645496251182897652 (0xE58F9634D9DC2337311FB6AF676259F4)
Полное имя : Move.to.Heaven.S01E01.1080p.NF.WEB-DL.DDP5.1.x264-DoA_Kyle.mkv
Формат : Matroska
Версия формата : Version 4
Размер файла : 1,26 Гбайт
Продолжительность : 53 мин. 1 с.
Режим общего битрейта : Переменный
Общий битрейт : 3 415 Кбит/сек
Частота кадров : 23,976 кадра/сек
Дата кодирования : 2024-06-15 11:50:33 UTC
Программа кодирования : mkvmerge v85.0 ('Shame For You') 64-bit
Библиотека кодирования : libebml v1.4.5 + libmatroska v1.7.1
Видео
Идентификатор : 1
Формат : AVC
Формат/Информация : Advanced Video Codec
Профиль формата : Main@L4
Настройки формата : CABAC / 3 Ref Frames
Параметр CABAC формата : Да
Параметр RefFrames формата : 3 кадра
Идентификатор кодека : V_MPEG4/ISO/AVC
Продолжительность : 53 мин. 1 с.
Вид битрейта : Переменный
Битрейт : 2 324 Кбит/сек
Номинальный битрейт : 3 109 Кбит/сек
Максимальный битрейт : 5 475 Кбит/сек
Ширина : 1 920 пикселей
Высота : 1 080 пикселей
Соотношение сторон дисплея : 16:9
Режим частоты кадров : Постоянный
Частота кадров : 23,976 (24000/1001) кадра/сек
Цветовое пространство : YUV
Цветовая субдискретизация : 4:2:0
Битовая глубина : 8 бит
Тип развёртки : Прогрессивная
Бит/(Пиксели*Кадры) : 0.047
Размер потока : 882 Мбайт (68%)
Библиотека кодирования : x264 core 148 r2722 1b0121b
Параметры библиотеки кодирования : cabac=1 / ref=3 / deblock=1:0:0 / analyse=0x1:0x111 / me=umh / subme=10 / psy=1 / psy_rd=1.00:0.00 / mixed_ref=1 / me_range=24 / chroma_me=1 / trellis=2 / 8x8dct=0 / cqm=0 / deadzone=21,11 / fast_pskip=1 / chroma_qp_offset=-2 / threads=8 / lookahead_threads=1 / sliced_threads=0 / nr=0 / decimate=1 / interlaced=0 / bluray_compat=0 / stitchable=1 / constrained_intra=0 / bframes=2 / b_pyramid=0 / b_adapt=2 / b_bias=0 / direct=3 / weightb=1 / open_gop=0 / weightp=2 / keyint=250 / keyint_min=23 / scenecut=0 / intra_refresh=0 / rc_lookahead=48 / rc=2pass / mbtree=1 / bitrate=3109 / ratetol=1.0 / qcomp=0.50 / qpmin=6 / qpmax=51 / qpstep=4 / cplxblur=20.0 / qblur=0.5 / vbv_maxrate=5475 / vbv_bufsize=7300 / nal_hrd=vbr / filler=0 / ip_ratio=1.40 / aq=1:1.00
По умолчанию : Да
Принудительно : Нет
Аудио #1
Идентификатор : 2
Формат : AC-3
Формат/Информация : Audio Coding 3
Коммерческое название : Dolby Digital
Идентификатор кодека : A_AC3
Продолжительность : 53 мин. 1 с.
Вид битрейта : Постоянный
Битрейт : 448 Кбит/сек
Канал(-ы) : 6 каналов
Расположение каналов : L R C LFE Ls Rs
Частота дискретизации : 48,0 КГц
Частота кадров : 31,250 кадров/сек (1536 SPF)
Метод сжатия : С потерями
Размер потока : 170 Мбайт (13%)
Заголовок : Russian
Язык : Русский
Вид сервиса : Complete Main
По умолчанию : Да
Принудительно : Нет
Нормализация звука речи : -31 dB
cmixlev : -4.5 dB
surmixlev : -6 dB
dialnorm_Average : -31 dB
dialnorm_Minimum : -31 dB
dialnorm_Maximum : -31 dB
Аудио #2
Идентификатор : 3
Формат : E-AC-3
Формат/Информация : Enhanced AC-3
Коммерческое название : Dolby Digital Plus
Идентификатор кодека : A_EAC3
Продолжительность : 53 мин. 1 с.
Вид битрейта : Постоянный
Битрейт : 640 Кбит/сек
Канал(-ы) : 6 каналов
Расположение каналов : L R C LFE Ls Rs
Частота дискретизации : 48,0 КГц
Частота кадров : 31,250 кадров/сек (1536 SPF)
Битовая глубина : 32 бита
Метод сжатия : С потерями
Размер потока : 243 Мбайт (19%)
Заголовок : Korean
Язык : Корейский
Вид сервиса : Complete Main
По умолчанию : Нет
Принудительно : Нет
Нормализация звука речи : -27 dB
compr : -0.28 dB
dialnorm_Average : -27 dB
dialnorm_Minimum : -27 dB
dialnorm_Maximum : -27 dB
Текст #1
Идентификатор : 4
Формат : UTF-8
Идентификатор кодека : S_TEXT/UTF8
Идентификатор кодека/Информация : UTF-8 Plain Text
Продолжительность : 51 мин. 4 с.
Битрейт : 49 бит/сек
Частота кадров : 0,127 кадр/сек
Число элементов : 390
Размер потока : 18,4 КиБ (0%)
Заголовок : Russian
Язык : Русский
По умолчанию : Нет
Принудительно : Нет
Текст #2
Идентификатор : 5
Формат : UTF-8
Идентификатор кодека : S_TEXT/UTF8
Идентификатор кодека/Информация : UTF-8 Plain Text
Продолжительность : 50 мин. 59 с.
Битрейт : 32 бит/сек
Частота кадров : 0,130 кадр/сек
Число элементов : 398
Размер потока : 12,2 КиБ (0%)
Заголовок : English
Язык : Английский
По умолчанию : Нет
Принудительно : Нет
Текст #3
Идентификатор : 6
Формат : UTF-8
Идентификатор кодека : S_TEXT/UTF8
Идентификатор кодека/Информация : UTF-8 Plain Text
Продолжительность : 27 мин. 47 с.
Битрейт : 2 бит/сек
Частота кадров : 0,008 кадр/сек
Число элементов : 13
Размер потока : 492 байта (0%)
Заголовок : Forced
Язык : Корейский
По умолчанию : Нет
Принудительно : Нет
Текст #4
Идентификатор : 7
Формат : UTF-8
Идентификатор кодека : S_TEXT/UTF8
Идентификатор кодека/Информация : UTF-8 Plain Text
Продолжительность : 48 мин. 37 с.
Битрейт : 51 бит/сек
Частота кадров : 0,180 кадр/сек
Число элементов : 526
Размер потока : 18,3 КиБ (0%)
Заголовок : SDH
Язык : Корейский
По умолчанию : Нет
Принудительно : Нет
Текст #5
Идентификатор : 8
Формат : UTF-8
Идентификатор кодека : S_TEXT/UTF8
Идентификатор кодека/Информация : UTF-8 Plain Text
Продолжительность : 51 мин. 3 с.
Битрейт : 30 бит/сек
Частота кадров : 0,130 кадр/сек
Число элементов : 397
Размер потока : 11,3 КиБ (0%)
Язык : Немецкий
По умолчанию : Нет
Принудительно : Нет
Текст #6
Идентификатор : 9
Формат : UTF-8
Идентификатор кодека : S_TEXT/UTF8
Идентификатор кодека/Информация : UTF-8 Plain Text
Продолжительность : 51 мин. 4 с.
Битрейт : 33 бит/сек
Частота кадров : 0,133 кадр/сек
Число элементов : 409
Размер потока : 12,7 КиБ (0%)
Заголовок : Neutral
Язык : Испанский
По умолчанию : Нет
Принудительно : Нет
Текст #7
Идентификатор : 10
Формат : UTF-8
Идентификатор кодека : S_TEXT/UTF8
Идентификатор кодека/Информация : UTF-8 Plain Text
Продолжительность : 51 мин. 4 с.
Битрейт : 30 бит/сек
Частота кадров : 0,130 кадр/сек
Число элементов : 399
Размер потока : 11,6 КиБ (0%)
Заголовок : Castilian
Язык : Испанский
По умолчанию : Нет
Принудительно : Нет
Текст #8
Идентификатор : 11
Формат : UTF-8
Идентификатор кодека : S_TEXT/UTF8
Идентификатор кодека/Информация : UTF-8 Plain Text
Продолжительность : 51 мин. 7 с.
Битрейт : 31 бит/сек
Частота кадров : 0,119 кадр/сек
Число элементов : 365
Размер потока : 11,7 КиБ (0%)
Язык : Французский
По умолчанию : Нет
Принудительно : Нет
Текст #9
Идентификатор : 12
Формат : UTF-8
Идентификатор кодека : S_TEXT/UTF8
Идентификатор кодека/Информация : UTF-8 Plain Text
Продолжительность : 51 мин. 4 с.
Битрейт : 31 бит/сек
Частота кадров : 0,128 кадр/сек
Число элементов : 392
Размер потока : 11,7 КиБ (0%)
Язык : Итальянский
По умолчанию : Нет
Принудительно : Нет
Текст #10
Идентификатор : 13
Формат : UTF-8
Идентификатор кодека : S_TEXT/UTF8
Идентификатор кодека/Информация : UTF-8 Plain Text
Продолжительность : 51 мин. 7 с.
Битрейт : 33 бит/сек
Частота кадров : 0,130 кадр/сек
Число элементов : 398
Размер потока : 12,5 КиБ (0%)
Язык : Португальский
По умолчанию : Нет
Принудительно : Нет
Релиз от: by Kyle
AdGuard VPN - бесплатный, надёжный и быстрый VPN
[korsars.pro].t104652.torrent 
Торрент: Зарегистрирован [ 2024-06-15 21:02 ] · 134F0302AD1835FA3F27C30C04890671ED22C945

Скачать .torrent

Размер .torrent файла 64 KB

Статус: проверено
.torrent скачан: 0 раз
Размер: 12.53 GB
Правила

AdGuard VPN - бесплатный, надёжный и быстрый VPN
Похожие темы

Вы не зарегистрированы на нашем сайте. Вам доступна для скачивания только часть контента. Чтобы увидеть весь контент сайта, пожалуйста, зарегистрируйтесь.

Дешевый и быстрый Сидбокс
У Вас отключен VIP статус, поэтому Вам показывается реклама на сайте. Вы можете поддержать наш ресурс и приобрести VIP статус, тем самым отключив показ рекламы на сайте, а ещё VIP пользователи получают 15 инвайтов, которыми можно поделиться с друзьями или знакомыми.
Дешевый и быстрый Сидбокс
AdGuard - Интернет без рекламы и слежки в любом браузере
[Профиль] [ЛС]
Показать сообщения:    
Ответить на тему

Текущее время: 13-Июл 10:25

Часовой пояс: UTC + 4



Вы не можете начинать темы
Вы не можете отвечать на сообщения
Вы не можете редактировать свои сообщения
Вы не можете удалять свои сообщения
Вы не можете голосовать в опросах
Вы не можете прикреплять файлы к сообщениям
Вы можете скачивать файлы
Яндекс.Метрика

Материал для зрителей старше 18 летВсе материалы на сайте получены из свободных источников в сети Интернет и представлены исключительно для личного (некоммерческого) использования лицами старше 18 лет.