Мир Юрского периода: Теория Хаоса / Jurassic World: Chaos Theory [S01] (2024) WEB-DL 1080p | P | LostFilm, TVShows

Ответить на тему
Статистика раздачи [Обновить пиров]
Размер:  9.94 GB   |    Зарегистрирован:  13 дней   |    .torrent скачан:  0 раз
Раздают:  142  [  0 KB/s  ]   Качают:  32  [  0 KB/s  ]   Подробная статистика пиров
   
 
Автор Сообщение

ExPlayer ®

Оффлайн

Медали


Пол: Мужской

Стаж: 9 лет 7 месяцев

Наличие запрета:

Сообщений: 61443

Откуда: korsars.pro

Отдача: 100 Mb/s

Загрузка: 100 Mb/s



AdGuard VPN - бесплатный, надёжный и быстрый VPN

Создавать темы 11-Июн-2024 01:02

[Цитировать]


Название: Мир Юрского периода: Теория Хаоса
Оригинальное название: Jurassic World: Chaos Theory
Год выпуска: 2024
Жанр: мультфильм, фантастика, боевик, приключения, семейный
Страна: США
Режиссер: Роберт Бриггс / Robert Briggs
В ролях: Пол-Микель Уильямс, Шон Джамброун, Кирстен Ли Келли, Рейни Родригес, Даррен Барнет, Стивен Блум, Юджин Кордеро, Каусар Мохаммед, Кармен Мур, Сумали Монтано, Бенжамин Флорес мл., Крис Джай Алекс, Алан Тринка
Описание: События разворачиваются через 6 лет после "Лагеря Мелового периода". Команда "Шестерка Нублар" воссоединяется для того, чтобы расскрыть заговор, который угрожает как динозаврам, так и человечеству, а также узнать правду, что случилось с одним из них.

Продолжительность: 10 x ~ 00:24:00
Перевод 1: Профессиональный многоголосый (LostFilm)
Перевод 2: Профессиональный многоголосый (TVShows)
Качество: WEB-DL 1080p | Jurassic World Chaos Theory S01 1080p NF WEB-DL H264-FLUX
Формат: MKV
Видео: AVC, 1920x1080, 23.976 fps, ~ 5000 kbps
Аудио 1 Rus: AAC, 48 KHz, 2 ch, 253 kbps | LostFilm
Аудио 2 Rus: AAC, 48 KHz, 2 ch, 253 kbps | TVShows
Аудио 3 Eng: E-AC3, 48 KHz, 6 ch, 640 kbps
Субтитры: Русские (Forced -надписи , Full), английские (Full, SDH)

MediaInfo

General
Unique ID : 277510538196829955908663343874198337003 (0xD0C695E5ECD62FE475AA36C2E415F5EB)
Complete name : E:Jurassic.World.Chaos.Theory.S01.1080pJurassic.World.Chaos.Theory.S01E01.Aftershock.1080p.NF.WEB-DL.mkv
Format : Matroska
Format version : Version 4
File size : 1 005 MiB
Duration : 23 min 16 s
Overall bit rate mode : Variable
Overall bit rate : 6 038 kb/s
Encoded date : UTC 2024-06-10 14:46:33
Writing application : mkvmerge v62.0.0 ('Apollo') 64-bit
Writing library : libebml v1.4.2 + libmatroska v1.6.4
Video
ID : 1
Format : AVC
Format/Info : Advanced Video Codec
Format profile : Main@L4
Format settings : CABAC / 3 Ref Frames
Format settings, CABAC : Yes
Format settings, Reference frames : 3 frames
Codec ID : V_MPEG4/ISO/AVC
Duration : 23 min 16 s
Bit rate mode : Variable
Bit rate : 5 000 kb/s
Maximum bit rate : 7 500 kb/s
Width : 1 920 pixels
Height : 1 080 pixels
Display aspect ratio : 16:9
Frame rate mode : Constant
Frame rate : 23.976 (24000/1001) FPS
Color space : YUV
Chroma subsampling : 4:2:0
Bit depth : 8 bits
Scan type : Progressive
Bits/(Pixel*Frame) : 0.101
Stream size : 814 MiB (81%)
Writing library : x264 core 148 r2727 7d026e8
Encoding settings : cabac=1 / ref=3 / deblock=1:0:0 / analyse=0x1:0x111 / me=umh / subme=10 / psy=1 / psy_rd=1.00:0.00 / mixed_ref=1 / me_range=24 / chroma_me=1 / trellis=2 / 8x8dct=0 / cqm=0 / deadzone=21,11 / fast_pskip=1 / chroma_qp_offset=-2 / threads=6 / lookahead_threads=1 / sliced_threads=0 / nr=0 / decimate=1 / interlaced=0 / bluray_compat=0 / stitchable=1 / constrained_intra=0 / bframes=2 / b_pyramid=0 / b_adapt=2 / b_bias=0 / direct=3 / weightb=1 / open_gop=0 / weightp=2 / keyint=240 / keyint_min=121 / scenecut=0 / intra_refresh=0 / rc_lookahead=48 / rc=2pass / mbtree=1 / bitrate=5000 / ratetol=1.0 / qcomp=0.50 / qpmin=6 / qpmax=51 / qpstep=4 / cplxblur=20.0 / qblur=0.5 / vbv_maxrate=7500 / vbv_bufsize=10000 / nal_hrd=vbr / filler=0 / ip_ratio=1.40 / aq=1:1.00
Language : English
Default : Yes
Forced : No
Audio #1
ID : 2
Format : AAC LC
Format/Info : Advanced Audio Codec Low Complexity
Codec ID : A_AAC-2
Duration : 23 min 16 s
Bit rate : 253 kb/s
Channel(s) : 2 channels
Channel layout : L R
Sampling rate : 48.0 kHz
Frame rate : 46.875 FPS (1024 SPF)
Compression mode : Lossy
Stream size : 42.2 MiB (4%)
Title : Rus | LostFilm
Language : Russian
Default : Yes
Forced : No
Audio #2
ID : 3
Format : AAC LC
Format/Info : Advanced Audio Codec Low Complexity
Codec ID : A_AAC-2
Duration : 23 min 16 s
Bit rate : 253 kb/s
Channel(s) : 2 channels
Channel layout : L R
Sampling rate : 48.0 kHz
Frame rate : 46.875 FPS (1024 SPF)
Compression mode : Lossy
Stream size : 42.2 MiB (4%)
Title : Rus | TVShows
Language : Russian
Default : No
Forced : No
Audio #3
ID : 4
Format : E-AC-3
Format/Info : Enhanced AC-3
Commercial name : Dolby Digital Plus
Codec ID : A_EAC3
Duration : 23 min 16 s
Bit rate mode : Constant
Bit rate : 640 kb/s
Channel(s) : 6 channels
Channel layout : L R C LFE Ls Rs
Sampling rate : 48.0 kHz
Frame rate : 31.250 FPS (1536 SPF)
Compression mode : Lossy
Stream size : 107 MiB (11%)
Language : English
Service kind : Complete Main
Default : No
Forced : No
Text #1
ID : 5
Format : ASS
Codec ID : S_TEXT/ASS
Codec ID/Info : Advanced Sub Station Alpha
Duration : 22 min 3 s
Bit rate : 3 b/s
Count of elements : 7
Compression mode : Lossless
Stream size : 506 Bytes (0%)
Title : Rus | Forced
Language : Russian
Default : Yes
Forced : No
Text #2
ID : 6
Format : UTF-8
Codec ID : S_TEXT/UTF8
Codec ID/Info : UTF-8 Plain Text
Duration : 22 min 3 s
Bit rate : 87 b/s
Count of elements : 268
Stream size : 14.2 KiB (0%)
Language : Russian
Default : No
Forced : No
Text #3
ID : 7
Format : UTF-8
Codec ID : S_TEXT/UTF8
Codec ID/Info : UTF-8 Plain Text
Duration : 20 min 17 s
Bit rate : 65 b/s
Count of elements : 265
Stream size : 9.70 KiB (0%)
Language : English
Default : No
Forced : No
Text #4
ID : 8
Format : UTF-8
Codec ID : S_TEXT/UTF8
Codec ID/Info : UTF-8 Plain Text
Duration : 21 min 39 s
Bit rate : 79 b/s
Count of elements : 380
Stream size : 12.6 KiB (0%)
Title : SDH
Language : English
Default : No
Forced : No
Menu
00:00:00.000 : en:Part 01
00:21:42.450 : en:Credits

Скриншоты


AdGuard VPN - бесплатный, надёжный и быстрый VPN
[korsars.pro].t104442.torrent 
Торрент: Зарегистрирован [ 2024-06-11 01:02 ] · BC57E9464313B7A8EB47A9E95F6D0A08FFE4E0D9

Скачать .torrent

Размер .torrent файла 201 KB

Статус: проверено
.torrent скачан: 0 раз
Размер: 9.94 GB
Правила
VLDeshka(11-Июн-24)

AdGuard VPN - бесплатный, надёжный и быстрый VPN
Похожие темы

Вы не зарегистрированы на нашем сайте. Вам доступна для скачивания только часть контента. Чтобы увидеть весь контент сайта, пожалуйста, зарегистрируйтесь.

Дешевый и быстрый Сидбокс
У Вас отключен VIP статус, поэтому Вам показывается реклама на сайте. Вы можете поддержать наш ресурс и приобрести VIP статус, тем самым отключив показ рекламы на сайте, а ещё VIP пользователи получают 15 инвайтов, которыми можно поделиться с друзьями или знакомыми.
Дешевый и быстрый Сидбокс
AdGuard - Интернет без рекламы и слежки в любом браузере
[Профиль] [ЛС]
Показать сообщения:    
Ответить на тему

Текущее время: 24-Июн 07:15

Часовой пояс: UTC + 4



Вы не можете начинать темы
Вы не можете отвечать на сообщения
Вы не можете редактировать свои сообщения
Вы не можете удалять свои сообщения
Вы не можете голосовать в опросах
Вы не можете прикреплять файлы к сообщениям
Вы можете скачивать файлы
Яндекс.Метрика

Материал для зрителей старше 18 летВсе материалы на сайте получены из свободных источников в сети Интернет и представлены исключительно для личного (некоммерческого) использования лицами старше 18 лет.