Мутанты черепашки ниндзя / Teenage Mutant Ninja Turtles [S05] (2003) DVDRip 1080p | D | Локализованная версия | Flarrow Films

Ответить на тему
Статистика раздачи [Обновить пиров]
Размер:  11.87 GB   |    Зарегистрирован:  11 дней   |    .torrent скачан:  6 раз
Раздают:  2  [  0 KB/s  ]   Качают:  2  [  0 KB/s  ]   Подробная статистика пиров
   
 
Автор Сообщение

flarrowfilms ®

Оффлайн

Медали
VIPДруг трекераСупер Мега Контер Квейк


Пол: Не указан

Стаж: 4 года 2 месяца

Наличие запрета:

Сообщений: 186

Отдача: 5 Mb/s

Загрузка: 5 Mb/s



AdGuard VPN - бесплатный, надёжный и быстрый VPN

Создавать темы 09-Июн-2024 22:04

[Цитировать]

Информация о фильме
Название: Мутанты черепашки ниндзя. Новые приключения!
Оригинальное название: Teenage Mutant Ninja Turtles
Год выхода: 2003
Жанр: мультфильм, фантастика, боевик, комедия, приключения, семейный
Режиссер:
Рой Бурдин, Чак Паттон
В ролях: Майкл Синтерниклаас, Уэйн Грэйсон, Грегори Аббей, Сэм Ригел, Даррен Данстэн, Марк Томпсон, Вероника Тейлор, Шон Шеммель, Дэвид Зен Мансли, Скотт Рэйоу
О фильме:
Черепашки-ниндзя мешают планам таинственного клана, главой которого является их заклятый враг Шреддер. Неожиданные приключения приведут героев в панцирях в космос, в феодальную Японию и даже в киберпространство.

Страна: США, Корея Южная
Продолжительность: 00:21:17
Перевод: Дублированный (неофициальный) | Flarrow Films
Роли озвучивали: Денис Кузьмичёв, Ахилл Намазов, Евгений Леонов, Семён Евсиков, Константин Федосеев, Дмитрий Лунёв, Андрей Бригиневич, Рина Чернышова, Рута Хэмвалл, Виктор Дарк, Елена Ефремова, Андрей Маслов, Дмитрий Мальков, Алина Лихачева и Константин Погодаев.
Файл
Формат:MKV
Кодек: MPEG-4 AVC
Качество: DVDRip 1080p (Локализированный видеоряд)
Видео: 1440х1080, ~ 6 988 kb/s, 29.970, 8 bits
Аудио: AC-3, 192 kb/s, 2 channels, 48.0 kHz
ПОДПИШИСЬ НА НАС В ТЕЛЕГРАМ
-

MediaInfo

General
Unique ID : 209723811992891653690941251767618671936 (0x9DC75642CD44213E981F8AEA09C69540)
Complete name : C:\Flarrow Films\Teenage.Mutant.Ninja.Turtles.(2003).S05.Flarrow.Films\Teenage Mutant Ninja Turtles (2003) - s05e01.mkv
Format : Matroska
Format version : Version 4
File size : 1.07 GiB
Duration : 21 min 17 s
Overall bit rate : 7 180 kb/s
Encoded date : UTC 2023-05-07 17:00:34
Writing application : mkvmerge v45.0.0 ('Heaven in Pennies') 64-bit
Writing library : libebml v1.3.10 + libmatroska v1.5.2
Video
ID : 1
Format : AVC
Format/Info : Advanced Video Codec
Format profile : High@L4
Format settings : CABAC / 4 Ref Frames
Format settings, CABAC : Yes
Format settings, Reference : 4 frames
Codec ID : V_MPEG4/ISO/AVC
Duration : 21 min 16 s
Bit rate : 6 988 kb/s
Width : 1 440 pixels
Height : 1 080 pixels
Display aspect ratio : 4:3
Frame rate mode : Constant
Frame rate : 29.970 (30000/1001) FPS
Color space : YUV
Chroma subsampling : 4:2:0
Bit depth : 8 bits
Scan type : Progressive
Bits/(Pixel*Frame) : 0.150
Stream size : 1.04 GiB (97%)
Language : English
Default : Yes
Forced : No
Color range : Limited
Color primaries : BT.709
Transfer characteristics : BT.709
Matrix coefficients : BT.709
Audio
ID : 2
Format : AC-3
Format/Info : Audio Coding 3
Commercial name : Dolby Digital
Codec ID : A_AC3
Duration : 21 min 17 s
Bit rate mode : Constant
Bit rate : 192 kb/s
Channel(s) : 2 channels
Channel layout : L R
Sampling rate : 48.0 kHz
Frame rate : 31.250 FPS (1536 SPF)
Compression mode : Lossy
Stream size : 29.2 MiB (3%)
Service kind : Complete Main
Default : Yes
Forced : No
--Релиз от: Flarrow Films
Примечание:Релиз без рекламы.-
AdGuard VPN - бесплатный, надёжный и быстрый VPN
[korsars.pro].t104397.torrent 
Торрент: Зарегистрирован [ 2024-06-09 22:04 ] · AF1F1D2C5405E6B070AC94CC70FE8215D5BC3359

Скачать .torrent

Размер .torrent файла 31 KB

Статус: проверено
.torrent скачан: 6 раз
Размер: 11.87 GB
Правила
ExPlayer(10-Июн-24)

AdGuard VPN - бесплатный, надёжный и быстрый VPN
Похожие темы

Вы не зарегистрированы на нашем сайте. Вам доступна для скачивания только часть контента. Чтобы увидеть весь контент сайта, пожалуйста, зарегистрируйтесь.

Дешевый и быстрый Сидбокс
У Вас отключен VIP статус, поэтому Вам показывается реклама на сайте. Вы можете поддержать наш ресурс и приобрести VIP статус, тем самым отключив показ рекламы на сайте, а ещё VIP пользователи получают 15 инвайтов, которыми можно поделиться с друзьями или знакомыми.
Дешевый и быстрый Сидбокс
AdGuard - Интернет без рекламы и слежки в любом браузере
[Профиль] [ЛС]
Показать сообщения:    
Ответить на тему

Текущее время: 21-Июн 18:38

Часовой пояс: UTC + 4



Вы не можете начинать темы
Вы не можете отвечать на сообщения
Вы не можете редактировать свои сообщения
Вы не можете удалять свои сообщения
Вы не можете голосовать в опросах
Вы не можете прикреплять файлы к сообщениям
Вы можете скачивать файлы
Яндекс.Метрика

Материал для зрителей старше 18 летВсе материалы на сайте получены из свободных источников в сети Интернет и представлены исключительно для личного (некоммерческого) использования лицами старше 18 лет.