Внешние сферы / Outer Range [S01-02] (2022-2024) WEB-DLRip | LostFilm

Ответить на тему
Статистика раздачи [Обновить пиров]
Размер:  9.22 GB   |    Зарегистрирован:  1 месяц 7 дней   |    .torrent скачан:  4 раза

Полного источника не было: Никогда

   
 
Автор Сообщение

ExPlayer ®

Оффлайн

Медали


Пол: Мужской

Стаж: 9 лет 8 месяцев

Наличие запрета:

Сообщений: 62339

Откуда: korsars.pro

Отдача: 100 Mb/s

Загрузка: 100 Mb/s



AdGuard VPN - бесплатный, надёжный и быстрый VPN

Создавать темы 05-Июн-2024 21:02

[Цитировать]


Информация о фильме
Название: Внешние сферы
Оригинальное название: Outer Range
Год выхода: 2022-2024
Жанр: драма, детектив
Режиссер: Дженнифер Гетцингер, Алонсо Руиспаласиос, Эми Саймец
В ролях: Джош Бролин, Имоджен Путс, Лили Тейлор, Том Пелфри, Тамара Подемски, Льюис Пуллман, Ной Рейд, Шон Сайпос, Олив Элиз Аберкромби, Уилл Пэттон
О фильме: «Внешние сферы» — мистическая неовестерн-драма от платформы Amazon Prime, автором которой выступил дебютант ТВ-индустрии Брайан Уоткинс. История, разворачивающаяся на просторах Дикого Запада, в которой мирские дела сливаются со сверхъестественными явлениями, наверняка порадует поклонников «Йеллоустоуна» и «Загадочных событий» — именно таким смешением жанров и сюжета охарактеризовали критики новый сериал. В число продюсеров проекта вошли Джош Бролин (который также исполняет главную роль) и Брэд Питт. Помимо Бролина, в драме снялись Лили Тейлор («Хемлок Гроув»), Имоджен Путс («Отец»), Том Пелфри («Железный кулак») и Льюис Пуллман («Ничего хорошего в отеле "Эль Рояль"»).
Ройал Эбботт (Джош Бролин) — владелец довольно прибыльного ранчо в Вайоминге, принадлежащего его семье уже три поколения. Однако в последнее время Эбботты переживают нелегкие времена. Фермеры на соседней земле, семейство Тиллерсонов, намерены забрать часть территории Ройала, воспользовавшись старой картографической ошибкой. Конфликт с соседями обостряет пропажа одного из братьев Тиллерсонов, в которой оказываются замешаны сыновья Ройала, Ретт (Льюис Пуллман) и Перри (Том Пелфри). Произошедшее — всего лишь одна из темных тайн, которые скрывают Эбботты. Другой заботой Ройала, которую он держит в секрете даже от собственной семьи, становится появление огромной дыры посреди его территории, происхождение которой явно носит мистический характер. И, кажется, именно этот бездонный портал становится причиной, из-за которой земля Эбботтов в последнее время привлекает столько внимания чужаков.

Страна: США
Студия: Amazon Studios, Flame Ventures, Plan B Entertainment
Продолжительность: ~00:57:00 серия
Перевод: Профессиональный (многоголосый, закадровый) LostFilm
Файл
Качество: WEB-DLRip
Формат: AVI
Видео: 720x304 at 24.000 fps, XviD, ~1500 kbps avg
Аудио: Russian: 48 kHz, MP3, 2/0 (L,R) ch, ~128 kbps avg |Многоголосый закадровый, LostFilm|
Субтитры: None
***Примечание: Без рекламы

Скриншоты

MediaInfo

Общее
Полное имя : Outer.Range.S01E01.avi
Формат : AVI
Формат/Информация : Audio Video Interleave
Размер файла : 675 Мбайт
Продолжительность : 57 м. 35 с.
Общий поток : 1 640 Кбит/сек
Программа кодирования : VirtualDubMod 1.5.10.3 (build 2550/release)
Видео
Идентификатор : 0
Формат : MPEG-4 Visual
Профиль формата : Advanced Simple@L5
Настройки формата : BVOP1 / Custom Matrix
Параметр BVOP формата : 1
Параметр QPel формата : Нет
Параметр GMC формата : Без точки перехода
Параметр матрицы формата : Выборочная
Идентификатор кодека : XVID
Идентификатор кодека/Подсказка : XviD
Продолжительность : 57 м. 35 с.
Битрейт : 1 502 Кбит/сек
Ширина : 720 пикселей
Высота : 304 пикселя
Соотношение сторон : 2,35:1
Частота кадров : 24,000 кадра/сек
Цветовое пространство : YUV
Субдискретизация насыщенности : 4:2:0
Битовая глубина : 8 бит
Тип развёртки : Прогрессивная
Метод сжатия : С потерями
Бит/(Пиксели*Кадры) : 0.286
Размер потока : 619 Мбайт (92%)
Библиотека кодирования : XviD 69
Аудио
Идентификатор : 1
Формат : MPEG Audio
Версия формата : Version 1
Профиль формата : Layer 3
Настройки формата : Joint stereo / MS Stereo
Идентификатор кодека : 55
Идентификатор кодека/Подсказка : MP3
Продолжительность : 57 м. 35 с.
Вид битрейта : Постоянный
Битрейт : 128 Кбит/сек
Каналы : 2 канала
Частота : 48,0 КГц
Метод сжатия : С потерями
Размер потока : 52,7 Мбайт (8%)
Выравнивание : Соединение по промежуткам
Продолжительность промежутка : 42 мс. (1,00 видеокадр)
Время предзагрузки промежутка : 504 мс.

Раздача ведется путем добавления новых серий

Когда раздача ведётся путём добавления новых серий, при каждом добавлении создётся новый торрент. Чтобы начать докачку новой серии, пользователям необходимо сделать следующее:
(1) остановить скачивание,
(2) удалить старый торрент у себя из клиента (старые серии удалять не надо),
(3) скачать новый торрент и запустить его у себя в клиенте вместо старого, при этом указать клиенту путь в старую папку, куда и должно происходить скачивание новых серий.
Ваш клиент при этом должен произвести хеширование (проверку) старой папки (если не производит сам - помогите ему сделать это), и будет докачивать только те серии, которых у вас ещё нет. Старые серии при этом не удаляются, а продолжают раздаваться!
Eсли вы уже удалили старые серии, то предотвратить повторную закачку старых серий можно, отжав галочку в соответсвующих местах при запуске нового торрента. По возможности, желательно не удалять старые серии как можно дольше, чтобы релизер не столько продолжал раздавать старые серии, а смог сконцентрироваться на новых.
AdGuard VPN - бесплатный, надёжный и быстрый VPN
[korsars.pro].t104212.torrent 
Торрент: Зарегистрирован [ 2024-06-05 21:02 ] · 68FDB9AD4821826D4CA66B627316156155739937

Скачать .torrent

Размер .torrent файла 48 KB

Статус: проверено
.torrent скачан: 4 раз
Размер: 9.22 GB
Правила

AdGuard VPN - бесплатный, надёжный и быстрый VPN
Похожие темы

Вы не зарегистрированы на нашем сайте. Вам доступна для скачивания только часть контента. Чтобы увидеть весь контент сайта, пожалуйста, зарегистрируйтесь.

Дешевый и быстрый Сидбокс
У Вас отключен VIP статус, поэтому Вам показывается реклама на сайте. Вы можете поддержать наш ресурс и приобрести VIP статус, тем самым отключив показ рекламы на сайте, а ещё VIP пользователи получают 15 инвайтов, которыми можно поделиться с друзьями или знакомыми.
Дешевый и быстрый Сидбокс
AdGuard - Интернет без рекламы и слежки в любом браузере
[Профиль] [ЛС]
Показать сообщения:    
Ответить на тему

Текущее время: 13-Июл 11:14

Часовой пояс: UTC + 4



Вы не можете начинать темы
Вы не можете отвечать на сообщения
Вы не можете редактировать свои сообщения
Вы не можете удалять свои сообщения
Вы не можете голосовать в опросах
Вы не можете прикреплять файлы к сообщениям
Вы можете скачивать файлы
Яндекс.Метрика

Материал для зрителей старше 18 летВсе материалы на сайте получены из свободных источников в сети Интернет и представлены исключительно для личного (некоммерческого) использования лицами старше 18 лет.