Акулы в Париже / Sous la Seine / Under Paris (2024) WEB-DL 1080p от EniaHD | D

Ответить на тему
Статистика раздачи [Обновить пиров]
Размер:  5.04 GB   |    Зарегистрирован:  16 дней   |    .torrent скачан:  1 раз
Раздают:  1710  [  0 KB/s  ]   Качают:  448  [  0 KB/s  ]   Подробная статистика пиров
   
 
Автор Сообщение

ExPlayer ®

Оффлайн

Медали


Пол: Мужской

Стаж: 9 лет 7 месяцев

Наличие запрета:

Сообщений: 61318

Откуда: korsars.pro

Отдача: 100 Mb/s

Загрузка: 100 Mb/s



AdGuard VPN - бесплатный, надёжный и быстрый VPN

Создавать темы 05-Июн-2024 13:01

[Цитировать]


Акулы в Париже / Sous la Seine
Страна: Франция
Жанр: ужасы, боевик, триллер, драма, спорт
Год выпуска: 2024
Продолжительность: 01:43:56
Перевод 1: Профессиональный (дублированный) - Videofilm International Ltd. [Израиль]
Перевод 2 (украинский): Профессиональный (дублированный) - Postmodern
Субтитры: русские (Forced, 2x Full), французские (Forced, SDH), арабские, английские (SDH), иврит, португальские, румынские, испанские, украинские (Forced, 2x Full)
Режиссер: Ксавье Жанс / Xavier Gens
В ролях: Беренис Бежо, Нассим Льес, Анаис Парельо, Иньяки Лартиг, Леа Левиан, Жюльен Жаку, Хосе Антонио Педроса Морено
Описание: В Сене появляется гигантская акула. Чтобы спасти Париж и гостей города от кровавой бани, пережившая утрату ученая вынуждена обратиться к своему трагическому прошлому.
Тип релиза: WEB-DL 1080p
Контейнер: MKV
Видео: MPEG-4 AVC, 1920x1080 (16:9), 24 fps, 5000 kbps
Аудио 1: RUS E-AC-3, 5.1, 48 kHz, 640 kbps
Аудио 2: UKR E-AC-3, 5.1, 48 kHz, 640 kbps
Аудио 3: FRA E-AC-3 JOC, 5.1, 48 kHz, 768 kbps
Формат субтитров: softsub (SRT)

MediaInfo

General
Unique ID : 59656781878163783314734540068265883328 (0x2CE17A6F4799E10C1A114702914F76C0)
Complete name : Under.Paris.2024.1080p.NF.WEB-DL.DDP5.1.x264-EniaHD.mkv
Format : Matroska
Format version : Version 4
File size : 5.04 GiB
Duration : 1 h 43 min
Overall bit rate mode : Variable
Overall bit rate : 6 944 kb/s
Frame rate : 24.000 FPS
Movie name : Sous la Seine (2024) - EniaHD
Writing application : mkvmerge v57.0.0 ('Till The End') 64-bit
Writing library : libebml v1.4.2 + libmatroska v1.6.4
Video
ID : 1
Format : AVC
Format/Info : Advanced Video Codec
Format profile : Main@L4
Format settings : CABAC / 3 Ref Frames
Format settings, CABAC : Yes
Format settings, Reference fra : 3 frames
Codec ID : V_MPEG4/ISO/AVC
Duration : 1 h 43 min
Bit rate mode : Variable
Bit rate : 5 000 kb/s
Maximum bit rate : 7 500 kb/s
Width : 1 920 pixels
Height : 1 080 pixels
Display aspect ratio : 16:9
Frame rate mode : Constant
Frame rate : 24.000 FPS
Color space : YUV
Chroma subsampling : 4:2:0
Bit depth : 8 bits
Scan type : Progressive
Bits/(Pixel*Frame) : 0.100
Stream size : 3.55 GiB (70%)
Writing library : x264 core 148 r2727 7d026e8
Encoding settings : cabac=1 / ref=3 / deblock=1:0:0 / analyse=0x1:0x111 / me=umh / subme=10 / psy=1 / psy_rd=1.00:0.00 / mixed_ref=1 / me_range=24 / chroma_me=1 / trellis=2 / 8x8dct=0 / cqm=0 / deadzone=21,11 / fast_pskip=1 / chroma_qp_offset=-2 / threads=6 / lookahead_threads=1 / sliced_threads=0 / nr=0 / decimate=1 / interlaced=0 / bluray_compat=0 / stitchable=1 / constrained_intra=0 / bframes=2 / b_pyramid=0 / b_adapt=2 / b_bias=0 / direct=3 / weightb=1 / open_gop=0 / weightp=2 / keyint=240 / keyint_min=121 / scenecut=0 / intra_refresh=0 / rc_lookahead=48 / rc=2pass / mbtree=1 / bitrate=5000 / ratetol=1.0 / qcomp=0.50 / qpmin=6 / qpmax=51 / qpstep=4 / cplxblur=20.0 / qblur=0.5 / vbv_maxrate=7500 / vbv_bufsize=10000 / nal_hrd=vbr / filler=0 / ip_ratio=1.40 / aq=1:1.00
Default : Yes
Forced : No
Audio #1
ID : 2
Format : E-AC-3
Format/Info : Enhanced AC-3
Commercial name : Dolby Digital Plus
Codec ID : A_EAC3
Duration : 1 h 43 min
Bit rate mode : Constant
Bit rate : 640 kb/s
Channel(s) : 6 channels
Channel layout : L R C LFE Ls Rs
Sampling rate : 48.0 kHz
Frame rate : 31.250 FPS (1536 SPF)
Compression mode : Lossy
Stream size : 476 MiB (9%)
Title : Russian
Language : Russian
Service kind : Complete Main
Default : Yes
Forced : No
Audio #2
ID : 3
Format : E-AC-3
Format/Info : Enhanced AC-3
Commercial name : Dolby Digital Plus
Codec ID : A_EAC3
Duration : 1 h 43 min
Bit rate mode : Constant
Bit rate : 640 kb/s
Channel(s) : 6 channels
Channel layout : L R C LFE Ls Rs
Sampling rate : 48.0 kHz
Frame rate : 31.250 FPS (1536 SPF)
Compression mode : Lossy
Stream size : 476 MiB (9%)
Title : Ukrainian
Language : Ukrainian
Service kind : Complete Main
Default : No
Forced : No
Audio #3
ID : 4
Format : E-AC-3 JOC
Format/Info : Enhanced AC-3 with Joint Object Coding
Commercial name : Dolby Digital Plus with Dolby Atmos
Codec ID : A_EAC3
Duration : 1 h 43 min
Bit rate mode : Constant
Bit rate : 768 kb/s
Channel(s) : 6 channels
Channel layout : L R C LFE Ls Rs
Sampling rate : 48.0 kHz
Frame rate : 31.250 FPS (1536 SPF)
Compression mode : Lossy
Stream size : 571 MiB (11%)
Title : French
Language : French
Service kind : Complete Main
Default : No
Forced : No
Complexity index : 16
Number of dynamic objects : 15
Bed channel count : 1 channel
Bed channel configuration : LFE
Text #1
ID : 5
Format : UTF-8
Codec ID : S_TEXT/UTF8
Codec ID/Info : UTF-8 Plain Text
Duration : 1 h 8 min
Bit rate : 1 b/s
Frame rate : 0.004 FPS
Count of elements : 15
Stream size : 667 Bytes (0%)
Title : Russian (Forced)
Language : Russian
Default : Yes
Forced : No
Text #2
ID : 6
Format : UTF-8
Codec ID : S_TEXT/UTF8
Codec ID/Info : UTF-8 Plain Text
Duration : 1 h 34 min
Bit rate : 82 b/s
Frame rate : 0.173 FPS
Count of elements : 979
Stream size : 56.7 KiB (0%)
Title : Russian
Language : Russian
Default : No
Forced : No
Text #3
ID : 7
Format : UTF-8
Codec ID : S_TEXT/UTF8
Codec ID/Info : UTF-8 Plain Text
Duration : 1 h 41 min
Bit rate : 64 b/s
Frame rate : 0.165 FPS
Count of elements : 1002
Stream size : 48.1 KiB (0%)
Title : Russian
Language : Russian
Default : No
Forced : No
Text #4
ID : 8
Format : UTF-8
Codec ID : S_TEXT/UTF8
Codec ID/Info : UTF-8 Plain Text
Duration : 1 h 37 min
Bit rate : 0 b/s
Frame rate : 0.003 FPS
Count of elements : 17
Stream size : 625 Bytes (0%)
Title : French (Forced)
Language : French
Default : No
Forced : No
Text #5
ID : 9
Format : UTF-8
Codec ID : S_TEXT/UTF8
Codec ID/Info : UTF-8 Plain Text
Duration : 1 h 41 min
Bit rate : 68 b/s
Frame rate : 0.229 FPS
Count of elements : 1394
Stream size : 50.5 KiB (0%)
Title : French (SDH)
Language : French
Default : No
Forced : No
Text #6
ID : 10
Format : UTF-8
Codec ID : S_TEXT/UTF8
Codec ID/Info : UTF-8 Plain Text
Duration : 1 h 35 min
Bit rate : 77 b/s
Frame rate : 0.176 FPS
Count of elements : 1015
Stream size : 54.2 KiB (0%)
Title : Arabic
Language : Arabic
Default : No
Forced : No
Text #7
ID : 11
Format : UTF-8
Codec ID : S_TEXT/UTF8
Codec ID/Info : UTF-8 Plain Text
Duration : 1 h 41 min
Bit rate : 68 b/s
Frame rate : 0.256 FPS
Count of elements : 1554
Stream size : 51.0 KiB (0%)
Title : English (SDH)
Language : English
Default : No
Forced : No
Text #8
ID : 12
Format : UTF-8
Codec ID : S_TEXT/UTF8
Codec ID/Info : UTF-8 Plain Text
Duration : 1 h 41 min
Bit rate : 59 b/s
Frame rate : 0.209 FPS
Count of elements : 1270
Stream size : 44.4 KiB (0%)
Title : Spanish (SDH)
Language : Spanish
Default : No
Forced : No
Text #9
ID : 13
Format : UTF-8
Codec ID : S_TEXT/UTF8
Codec ID/Info : UTF-8 Plain Text
Duration : 1 h 35 min
Bit rate : 68 b/s
Frame rate : 0.176 FPS
Count of elements : 1014
Stream size : 48.3 KiB (0%)
Title : Hebrew
Language : Hebrew
Default : No
Forced : No
Text #10
ID : 14
Format : UTF-8
Codec ID : S_TEXT/UTF8
Codec ID/Info : UTF-8 Plain Text
Duration : 1 h 41 min
Bit rate : 68 b/s
Frame rate : 0.256 FPS
Count of elements : 1556
Stream size : 51.0 KiB (0%)
Title : Portuguese (SDH)
Language : Portuguese
Default : No
Forced : No
Text #11
ID : 15
Format : UTF-8
Codec ID : S_TEXT/UTF8
Codec ID/Info : UTF-8 Plain Text
Duration : 1 h 41 min
Bit rate : 40 b/s
Frame rate : 0.159 FPS
Count of elements : 963
Stream size : 29.8 KiB (0%)
Title : Romanian
Language : Romanian
Default : No
Forced : No
Text #12
ID : 16
Format : UTF-8
Codec ID : S_TEXT/UTF8
Codec ID/Info : UTF-8 Plain Text
Duration : 1 h 35 min
Bit rate : 2 b/s
Frame rate : 0.006 FPS
Count of elements : 33
Stream size : 1.48 KiB (0%)
Title : Ukrainian (Forced)
Language : Ukrainian
Default : No
Forced : No
Text #13
ID : 17
Format : UTF-8
Codec ID : S_TEXT/UTF8
Codec ID/Info : UTF-8 Plain Text
Duration : 1 h 41 min
Bit rate : 62 b/s
Frame rate : 0.165 FPS
Count of elements : 999
Stream size : 46.5 KiB (0%)
Title : Ukrainian
Language : Ukrainian
Default : No
Forced : No
Text #14
ID : 18
Format : UTF-8
Codec ID : S_TEXT/UTF8
Codec ID/Info : UTF-8 Plain Text
Duration : 1 h 35 min
Bit rate : 76 b/s
Frame rate : 0.176 FPS
Count of elements : 1014
Stream size : 53.3 KiB (0%)
Title : Ukrainian
Language : Ukrainian
Default : No
Forced : No
Menu
00:00:00.000 : Part 01
01:36:28.450 : Credits

Скриншоты

AdGuard VPN - бесплатный, надёжный и быстрый VPN
[korsars.pro].t104179.torrent 
Торрент: Зарегистрирован [ 2024-06-05 13:01 ] · E645AEE8480AE9A9A518D5E89DE3A97F5DEE59CF

Скачать .torrent

Размер .torrent файла 13 KB

Статус: проверено
.torrent скачан: 1 раз
Размер: 5.04 GB
Правила

AdGuard VPN - бесплатный, надёжный и быстрый VPN
Похожие темы

Вы не зарегистрированы на нашем сайте. Вам доступна для скачивания только часть контента. Чтобы увидеть весь контент сайта, пожалуйста, зарегистрируйтесь.

Дешевый и быстрый Сидбокс
У Вас отключен VIP статус, поэтому Вам показывается реклама на сайте. Вы можете поддержать наш ресурс и приобрести VIP статус, тем самым отключив показ рекламы на сайте, а ещё VIP пользователи получают 15 инвайтов, которыми можно поделиться с друзьями или знакомыми.
Дешевый и быстрый Сидбокс
AdGuard - Интернет без рекламы и слежки в любом браузере
[Профиль] [ЛС]
Показать сообщения:    
Ответить на тему

Текущее время: 21-Июн 19:17

Часовой пояс: UTC + 4



Вы не можете начинать темы
Вы не можете отвечать на сообщения
Вы не можете редактировать свои сообщения
Вы не можете удалять свои сообщения
Вы не можете голосовать в опросах
Вы не можете прикреплять файлы к сообщениям
Вы можете скачивать файлы
Яндекс.Метрика

Материал для зрителей старше 18 летВсе материалы на сайте получены из свободных источников в сети Интернет и представлены исключительно для личного (некоммерческого) использования лицами старше 18 лет.