Франклин / Franklin (2024) UHD WEB-DL 2160p | 4K | HDR | Dolby Vision Profile 8 | P | Jaskier, HDRezka, TVShows

Ответить на тему
Статистика раздачи [Обновить пиров]
Размер:  83.56 GB   |    Зарегистрирован:  23 дня   |    .torrent скачан:  1 раз
Раздают:  68  [  0 KB/s  ]   Качают:  25  [  0 KB/s  ]   Подробная статистика пиров
   
 
Автор Сообщение

ExPlayer ®

Оффлайн

Медали


Пол: Мужской

Стаж: 9 лет 7 месяцев

Наличие запрета:

Сообщений: 61320

Откуда: korsars.pro

Отдача: 100 Mb/s

Загрузка: 100 Mb/s



AdGuard VPN - бесплатный, надёжный и быстрый VPN

Создавать темы 29-Май-2024 16:02

[Цитировать]

Название: Франклин
Оригинальное название: Franklin
Год выхода: 2024
Производство: США / Apple Studios, Flame Ventures, ITV Studios America
Жанр: Биография, история, драма
Перевод: Профессиональный многоголосый
Продолжительность: 08х ~00:45:00
Режиссёр: Тимоти Ван Паттен
В ролях: Майкл Дуглас, Ноа Джуп, Оливье Клавери, Марк Дюре, Лили Дюпон, Ксавье Броссар, Дэниэл Мейс, Ассаад Буаб, Людивин Санье, Теодор Пеллерен
Описание: Декабрь 1776 года. Бенджамин Франклин известен на весь мир своими экспериментами с электричеством. Но его энтузиазм и талант проходят проверку на прочность, когда он отправляется во Францию с секретным поручением. Судьба американской независимости в это время висит на волоске.

Формат: MKV
Качество: WEB-DL 2160p
Видео: MPEG-H HEVC / ~24.3 Mbps / 3840x1744 / 23.976 fps / 0.151 бит/(Пиксели*Кадры)
Аудио 1: AC-3, 48 kHz, 6 ch, 384 kbps | Русский, MVO | Jaskier - Серии 1-8
Аудио 2: AC-3, 48 kHz, 2 ch, 192 kbps | Русский, MVO | HDRezka - Серии 1-8
Аудио 3: AC-3, 48 kHz, 6 ch, 448 kbps | Русский, MVO | TVShows - Серии 1-7
Аудио 4: E-AC3 JOC, 48 kHz, 6 ch, 768 kbps | Original
Субтитры: Русские (Forced, Full, SDH), английские (Forced, Full, SDH)

Mediainfo

Общее
Уникальный идентификатор : 31137676374838124957813731993433279247 (0x176CE5F9250089D29DFA8313574A0B0F)
Полное имя : E:Franklin.2024.S01E01.Sauce.for.Prayers.2160p.ATVP.WEB-DL.DV.HDR.H.265.mkv
Формат : Matroska
Версия формата : Version 4
Размер файла : 10,8 Гбайт
Продолжительность : 59 м. 26 с.
Общий поток : 26,1 Мбит/сек
Частота кадров : 23,976 кадра/сек
Дата кодирования : 2024-04-27 22:04:07 UTC
Программа кодирования : mkvmerge v81.0 ('Milliontown') 64-bit
Библиотека кодирования : libebml v1.4.4 + libmatroska v1.7.1
Видео
Идентификатор : 1
Формат : HEVC
Формат/Информация : High Efficiency Video Coding
Профиль формата : Main 10@L5@High
HDR format : Dolby Vision, Version 1.0, dvhe.08.06, BL+RPU, HDR10 compatible / SMPTE ST 2094 App 4, Version 1, HDR10+ Profile B compatible
Идентификатор кодека : V_MPEGH/ISO/HEVC
Продолжительность : 59 м. 26 с.
Битрейт : 24,3 Мбит/сек
Ширина : 3 840 пикселей
Высота : 1 744 пикселя
Соотношение сторон : 2,2:1
Режим частоты кадров : Постоянный
Частота кадров : 23,976 (24000/1001) кадра/сек
Цветовое пространство : YUV
Субдискретизация насыщенности : 4:2:0 (Type 2)
Битовая глубина : 10 бит
Бит/(Пиксели*Кадры) : 0.151
Размер потока : 10,1 Гбайт (93%)
Язык : English
Default : Да
Forced : Нет
Цветовой диапазон : Limited
Основные цвета : BT.2020
Характеристики трансфера : PQ
Коэффициенты матрицы : BT.2020 non-constant
Mastering display color primaries : Display P3
Mastering display luminance : min: 0.0050 cd/m2, max: 1000 cd/m2
Maximum Content Light Level : 746 cd/m2
Maximum Frame-Average Light Level : 296 cd/m2
Аудио #1
Идентификатор : 2
Формат : AC-3
Формат/Информация : Audio Coding 3
Коммерческое название : Dolby Digital
Идентификатор кодека : A_AC3
Продолжительность : 59 м. 26 с.
Вид битрейта : Постоянный
Битрейт : 384 Кбит/сек
Каналы : 6 каналов
Channel layout : L R C LFE Ls Rs
Частота : 48,0 КГц
Частота кадров : 31,250 кадров/сек (1536 SPF)
Метод сжатия : С потерями
Размер потока : 163 Мбайт (1%)
Заголовок : Jaskier
Язык : Russian
Service kind : Complete Main
Default : Да
Forced : Нет
Аудио #2
Идентификатор : 3
Формат : AC-3
Формат/Информация : Audio Coding 3
Коммерческое название : Dolby Digital
Идентификатор кодека : A_AC3
Продолжительность : 59 м. 26 с.
Вид битрейта : Постоянный
Битрейт : 192 Кбит/сек
Каналы : 2 канала
Channel layout : L R
Частота : 48,0 КГц
Частота кадров : 31,250 кадров/сек (1536 SPF)
Метод сжатия : С потерями
Размер потока : 81,6 Мбайт (1%)
Заголовок : HDRezka
Язык : Russian
Service kind : Complete Main
Default : Нет
Forced : Нет
Аудио #3
Идентификатор : 4
Формат : AC-3
Формат/Информация : Audio Coding 3
Коммерческое название : Dolby Digital
Идентификатор кодека : A_AC3
Продолжительность : 59 м. 26 с.
Вид битрейта : Постоянный
Битрейт : 448 Кбит/сек
Каналы : 6 каналов
Channel layout : L R C LFE Ls Rs
Частота : 48,0 КГц
Частота кадров : 31,250 кадров/сек (1536 SPF)
Метод сжатия : С потерями
Размер потока : 190 Мбайт (2%)
Заголовок : TVShows
Язык : Russian
Service kind : Complete Main
Default : Нет
Forced : Нет
Аудио #4
Идентификатор : 5
Формат : E-AC-3 JOC
Формат/Информация : Enhanced AC-3 with Joint Object Coding
Коммерческое название : Dolby Digital Plus with Dolby Atmos
Идентификатор кодека : A_EAC3
Продолжительность : 59 м. 26 с.
Вид битрейта : Постоянный
Битрейт : 768 Кбит/сек
Каналы : 6 каналов
Channel layout : L R C LFE Ls Rs
Частота : 48,0 КГц
Частота кадров : 31,250 кадров/сек (1536 SPF)
Метод сжатия : С потерями
Размер потока : 326 Мбайт (3%)
Язык : English
Service kind : Complete Main
Default : Нет
Forced : Нет
Complexity index : 16
Number of dynamic objects : 15
Bed channel count : 1 канал
Bed channel configuration : LFE
Текст #1
Идентификатор : 6
Формат : UTF-8
Идентификатор кодека : S_TEXT/UTF8
Идентификатор кодека/Информация : UTF-8 Plain Text
Продолжительность : 52 м. 41 с.
Битрейт : 2 бит/сек
Частота кадров : 0,005 кадр/сек
Count of elements : 16
Размер потока : 1,04 Кбайт (0%)
Заголовок : Rus (Forced)
Язык : Russian
Default : Да
Forced : Нет
Текст #2
Идентификатор : 7
Формат : UTF-8
Идентификатор кодека : S_TEXT/UTF8
Идентификатор кодека/Информация : UTF-8 Plain Text
Продолжительность : 59 м. 2 с.
Битрейт : 83 бит/сек
Частота кадров : 0,186 кадр/сек
Count of elements : 658
Размер потока : 36,0 Кбайт (0%)
Заголовок : Full [Apple TV+]
Язык : Russian
Default : Нет
Forced : Нет
Текст #3
Идентификатор : 8
Формат : UTF-8
Идентификатор кодека : S_TEXT/UTF8
Идентификатор кодека/Информация : UTF-8 Plain Text
Продолжительность : 59 м. 2 с.
Битрейт : 103 бит/сек
Частота кадров : 0,227 кадр/сек
Count of elements : 804
Размер потока : 44,9 Кбайт (0%)
Заголовок : SDH [Apple TV+]
Язык : Russian
Default : Нет
Forced : Нет
Текст #4
Идентификатор : 9
Формат : UTF-8
Идентификатор кодека : S_TEXT/UTF8
Идентификатор кодека/Информация : UTF-8 Plain Text
Продолжительность : 46 м. 6 с.
Битрейт : 22 бит/сек
Частота кадров : 0,087 кадр/сек
Count of elements : 241
Размер потока : 7,74 Кбайт (0%)
Заголовок : Forced
Язык : English
Default : Нет
Forced : Нет
Текст #5
Идентификатор : 10
Формат : UTF-8
Идентификатор кодека : S_TEXT/UTF8
Идентификатор кодека/Информация : UTF-8 Plain Text
Продолжительность : 55 м. 8 с.
Битрейт : 54 бит/сек
Частота кадров : 0,197 кадр/сек
Count of elements : 652
Размер потока : 22,0 Кбайт (0%)
Заголовок : Full
Язык : English
Default : Нет
Forced : Нет
Текст #6
Идентификатор : 11
Формат : UTF-8
Идентификатор кодека : S_TEXT/UTF8
Идентификатор кодека/Информация : UTF-8 Plain Text
Продолжительность : 56 м. 28 с.
Битрейт : 65 бит/сек
Частота кадров : 0,236 кадр/сек
Count of elements : 800
Размер потока : 27,2 Кбайт (0%)
Заголовок : SDH
Язык : English
Default : Нет
Forced : Нет
Меню
00:00:00.000 : en:Studio Logo
00:00:08.843 : en:Main
00:57:20.500 : en:Credits

Скриншоты

AdGuard VPN - бесплатный, надёжный и быстрый VPN
[korsars.pro].t103887.torrent 
Торрент: Зарегистрирован [ 2024-05-29 16:01 ] · 5F3D2209BD29538EA4F67A7D8BF216F51A1B93E4

Скачать .torrent

Размер .torrent файла 419 KB

Статус: проверено
.torrent скачан: 1 раз
Размер: 83.56 GB
Правила

AdGuard VPN - бесплатный, надёжный и быстрый VPN
Похожие темы

Вы не зарегистрированы на нашем сайте. Вам доступна для скачивания только часть контента. Чтобы увидеть весь контент сайта, пожалуйста, зарегистрируйтесь.

Дешевый и быстрый Сидбокс
У Вас отключен VIP статус, поэтому Вам показывается реклама на сайте. Вы можете поддержать наш ресурс и приобрести VIP статус, тем самым отключив показ рекламы на сайте, а ещё VIP пользователи получают 15 инвайтов, которыми можно поделиться с друзьями или знакомыми.
Дешевый и быстрый Сидбокс
AdGuard - Интернет без рекламы и слежки в любом браузере
[Профиль] [ЛС]
Показать сообщения:    
Ответить на тему

Текущее время: 21-Июн 16:58

Часовой пояс: UTC + 4



Вы не можете начинать темы
Вы не можете отвечать на сообщения
Вы не можете редактировать свои сообщения
Вы не можете удалять свои сообщения
Вы не можете голосовать в опросах
Вы не можете прикреплять файлы к сообщениям
Вы можете скачивать файлы
Яндекс.Метрика

Материал для зрителей старше 18 летВсе материалы на сайте получены из свободных источников в сети Интернет и представлены исключительно для личного (некоммерческого) использования лицами старше 18 лет.