Наруто 2: Великая битва / Gekijô-ban Naruto: Daigekitotsu! Maboroshi no chitei iseki dattebayo! / Naruto the Movie: Legend of the Stone of Gelel (2005) WEB-DLRip 1080p | D | Локализованная версия | Flarrow Films

Ответить на тему
Статистика раздачи [Обновить пиров]
Размер:  3.53 GB   |    Зарегистрирован:  28 дней   |    .torrent скачан:  6 раз
Раздают:  14  [  0 KB/s  ]   Качают:  4  [  0 KB/s  ]   Подробная статистика пиров
   
 
Автор Сообщение

flarrowfilms ®

Оффлайн

Медали
VIPДруг трекераСупер Мега Контер Квейк


Пол: Не указан

Стаж: 4 года 2 месяца

Наличие запрета:

Сообщений: 186

Отдача: 5 Mb/s

Загрузка: 5 Mb/s



AdGuard VPN - бесплатный, надёжный и быстрый VPN

Создавать темы 26-Май-2024 21:05

[Цитировать]

Информация о фильме
Название: Наруто 2: Великая битва
Оригинальное название: Naruto the Movie: Legend of the Stone of Gelel
Год выхода: 2005
Жанр: мультфильм, короткометражка, фантастика, фэнтези, боевик, драма, приключения
Режиссер: Хироцуги Кавасаки
В ролях: Дзюнко Такэути, Сётаро Морикубо, Тиэ Накамура, Гаамон Кай, Такако Хонда, Акира Исида, Ясуюки Касэ, Гамон Кааи, Сатико Кодзима, Томока Курокава, Акио Нодзима, Нати Нодзава
О фильме:
Во время миссии по поимке хорька на Сакуру, Сикамару и Наруто нападают неизвестные ниндзя. Наруто, разлучённый со своей группой, узнает о силе, которая не имеет ничего общего с Чакрой, и о древней исчезнувшей цивилизации. После воссоединения со своими товарищами, Наруто вынужден начать борьбу за спасение всего мира.

Страна: Япония
Продолжительность: 01:36:42
Перевод: Дублированный (неофициальный) | Flarrow Films
Роли озвучивали: Ольга Сирина, Михаил Тихонов, Дмитрий Филимонов, Владимир Рыбальченко, Ирина Евтягина, Вероника Саркисова, Ева Финкельштейн, Максим Якимов, Евгений Рубцов, Дмитрий Мальков, Андрей Маслов, Лена Лунина, Дарья Триппель
Файл
Формат:MKV
Кодек: MPEG-4 AVC
Качество: WEB-DLRip 1080p (Локализированный видеоряд)
Видео: 1920х1032, ~ 4 639 kb/s, 23.976, 8 bits
Аудио: AC-3, 640 kb/s, 6 channels, 48.0 kHz
Субтитры: Русские (отключаемые UTF-8)
Сэмпл: скачать
ПОДПИШИСЬ НА НАС В ТЕЛЕГРАМ
-

MediaInfo

General
Unique ID : 94464396960443307516995943484876419629 (0x47112E5B286FDC57A574E7B09ADC722D)
Complete name : C:\Flarrow Films\Naruto.the.Movie.Legend.of.the.Stone.of.Gelel.2005.1080p.D.Flarrow.Films.mkv
Format : Matroska
Format version : Version 4
File size : 3.53 GiB
Duration : 1 h 36 min
Overall bit rate : 5 231 kb/s
Movie name : Naruto the Movie: Legend of the Stone of Gelel (2005) (1080p BluRay x265 SAMPA)
Encoded date : UTC 2024-05-24 11:32:19
Writing application : mkvmerge v45.0.0 ('Heaven in Pennies') 64-bit
Writing library : libebml v1.3.10 + libmatroska v1.5.2
Video
ID : 1
Format : AVC
Format/Info : Advanced Video Codec
Format profile : High@L4
Format settings : CABAC / 4 Ref Frames
Format settings, CABAC : Yes
Format settings, Reference : 4 frames
Codec ID : V_MPEG4/ISO/AVC
Duration : 1 h 36 min
Bit rate : 4 639 kb/s
Width : 1 920 pixels
Height : 1 032 pixels
Display aspect ratio : 1.85:1
Frame rate mode : Constant
Frame rate : 23.976 (24000/1001) FPS
Color space : YUV
Chroma subsampling : 4:2:0
Bit depth : 8 bits
Scan type : Progressive
Bits/(Pixel*Frame) : 0.098
Stream size : 3.10 GiB (88%)
Writing library : x264 core 161
Encoding settings : cabac=1 / ref=4 / deblock=1:1:1 / analyse=0x3:0x113 / me=hex / subme=4 / psy=1 / psy_rd=0.40:0.00 / mixed_ref=0 / me_range=16 / chroma_me=1 / trellis=1 / 8x8dct=1 / cqm=0 / deadzone=21,11 / fast_pskip=1 / chroma_qp_offset=0 / threads=30 / lookahead_threads=7 / sliced_threads=0 / nr=0 / decimate=1 / interlaced=0 / bluray_compat=0 / constrained_intra=0 / bframes=2 / b_pyramid=0 / b_adapt=1 / b_bias=0 / direct=1 / weightb=1 / open_gop=0 / weightp=1 / keyint=192 / keyint_min=19 / scenecut=40 / intra_refresh=0 / rc_lookahead=20 / rc=abr / mbtree=1 / bitrate=4639 / ratetol=1.0 / qcomp=0.60 / qpmin=0 / qpmax=69 / qpstep=4 / vbv_maxrate=6184 / vbv_bufsize=9278 / nal_hrd=none / filler=0 / ip_ratio=1.40 / aq=1:0.60
Language : Russian
Default : Yes
Forced : No
Color range : Limited
Color primaries : BT.709
Transfer characteristics : BT.709
Matrix coefficients : BT.709
Audio
ID : 2
Format : AC-3
Format/Info : Audio Coding 3
Commercial name : Dolby Digital
Codec ID : A_AC3
Duration : 1 h 36 min
Bit rate mode : Constant
Bit rate : 640 kb/s
Channel(s) : 6 channels
Channel layout : L R C LFE Ls Rs
Sampling rate : 48.0 kHz
Frame rate : 31.250 FPS (1536 SPF)
Compression mode : Lossy
Stream size : 443 MiB (12%)
Language : Russian
Service kind : Complete Main
Default : Yes
Forced : No
Text
ID : 3
Format : UTF-8
Codec ID : S_TEXT/UTF8
Codec ID/Info : UTF-8 Plain Text
Duration : 1 h 35 min
Bit rate : 71 b/s
Frame rate : 0.207 FPS
Count of elements : 1184
Stream size : 49.8 KiB (0%)
Language : Russian
Default : Yes
Forced : No
--Релиз от: Flarrow Films
Примечание:Релиз без рекламы.-
AdGuard VPN - бесплатный, надёжный и быстрый VPN
[korsars.pro].t103766.torrent 
Торрент: Зарегистрирован [ 2024-05-26 21:05 ] · 52BB9A487B896A823CF526C195CAEACABED46645

Скачать .torrent

Размер .torrent файла 18 KB

Статус: проверено
.torrent скачан: 6 раз
Размер: 3.53 GB
Правила
ExPlayer(26-Май-24)

AdGuard VPN - бесплатный, надёжный и быстрый VPN
Похожие темы

Вы не зарегистрированы на нашем сайте. Вам доступна для скачивания только часть контента. Чтобы увидеть весь контент сайта, пожалуйста, зарегистрируйтесь.

Дешевый и быстрый Сидбокс
У Вас отключен VIP статус, поэтому Вам показывается реклама на сайте. Вы можете поддержать наш ресурс и приобрести VIP статус, тем самым отключив показ рекламы на сайте, а ещё VIP пользователи получают 15 инвайтов, которыми можно поделиться с друзьями или знакомыми.
Дешевый и быстрый Сидбокс
AdGuard - Интернет без рекламы и слежки в любом браузере

Смотреть онлайн Наруто 2: Великая битва / Gekijô-ban Naruto: Daigekitotsu! Maboroshi no chitei iseki dattebayo! / Naruto the Movie: Legend of the Stone of Gelel (2005) WEB-DLRip 1080p | D | Локализованная версия | Flarrow Films



ЗДЕСЬ МОГЛА БЫТЬ ВАША РЕКЛАМА! По вопросам размещения рекламы на сайте, пишите на E-mail: admin[собачка]korsars.pro
[Профиль] [ЛС]

Создавать темы 26-Май-2024 21:18 (спустя 12 минут)

Топик был перенесен из форума Мультфильмы в форум Аниме
Причина переноса: Правильный форум
ExPlayer
AdGuard VPN - бесплатный, надёжный и быстрый VPN
 
Показать сообщения:    
Ответить на тему

Текущее время: 24-Июн 07:40

Часовой пояс: UTC + 4



Вы не можете начинать темы
Вы не можете отвечать на сообщения
Вы не можете редактировать свои сообщения
Вы не можете удалять свои сообщения
Вы не можете голосовать в опросах
Вы не можете прикреплять файлы к сообщениям
Вы можете скачивать файлы
Яндекс.Метрика

Материал для зрителей старше 18 летВсе материалы на сайте получены из свободных источников в сети Интернет и представлены исключительно для личного (некоммерческого) использования лицами старше 18 лет.