Претенденты / Challengers (2024) WEB-DLRip от New-Team | P | HDRezka Studio

Ответить на тему
Статистика раздачи [Обновить пиров]
Размер:  1.47 GB   |    Зарегистрирован:  1 месяц 2 дня   |    .torrent скачан:  1 раз
Раздают:  719  [  0 KB/s  ]   Качают:  105  [  0 KB/s  ]   Подробная статистика пиров
   
 
Автор Сообщение

ExPlayer ®

Оффлайн

Медали


Пол: Мужской

Стаж: 9 лет 7 месяцев

Наличие запрета:

Сообщений: 61443

Откуда: korsars.pro

Отдача: 100 Mb/s

Загрузка: 100 Mb/s



AdGuard VPN - бесплатный, надёжный и быстрый VPN

Создавать темы 21-Май-2024 16:02

[Цитировать]


Претенденты / Challengers
Год выпуска: 2024
Выпущено: США, Италия, Frenesy Film Company, Metro-Goldwyn-Mayer (MGM), Pascal Pictures
Жанр: драма, мелодрама, спорт
Режиссер: Лука Гуаданьино / Luca Guadagnino
В ролях: Зендея, Майк Фейст, Джош О’Коннор, Дарнелл Эпплинг, Брайан Ду, Шейн Т. Харрис, Нада Деспотович, Джоан Макшейн, Крис Фаулер, Мэри Джо Фернандес
О фильме: 2019 год. Теннисист Арт Дональдсон переживает не лучший период в карьере, поэтому, чтобы поднять его моральный дух и укрепить веру в себя, его жена и по совместительству тренер Таши предлагает принять участие в турнире серии ATP Challenger. В прошлом она сама была многообещающей спортсменкой, но не смогла восстановиться после травмы колена, и теперь все силы вкладывает в мужа. В финале Арт выходит на бывшего парня Таши и некогда своего лучшего друга Патрика Цвейга, для которого победа тоже становится делом принципа.

Продолжительность: 02:11:38
Перевод: Профессиональный (многоголосый, закадровый) | HDRezka Studio
Субтитры: Русские (FOCS & Un Chat Andalou | 18+), английские
Раздача от:
Автор релиза: JNS82.
Формат: AVI
Качество: WEB-DLRip
Видео: 704x384 (1.85:1), 23.976 fps, XviD MPEG-4 ~ 1393 kbps avg, 0.215 bit/pixel, build 74
Аудио: 48 kHz, AC3 Dolby Digital, 2/0 (L,R) ch, ~ 192 kbps | RUS |-

MediaInfo

Общее
Полное имя : D:TorrentsChallengers.2024.WEB-DLRip_от New-Team_by_JNS82Challengers.2024.WEB-DLRip_от New-Team_by_JNS82.avi
Формат : AVI
Формат/Информация : Audio Video Interleave
Размер файла : 1,47 Гбайт
Продолжительность : 2 ч. 11 м.
Общий поток : 1 594 Кбит/сек
Программа кодирования : VirtualDubMod 1.5.10.2 (build 2540/release)
Библиотека кодирования : VirtualDubMod build 2540/release
Видео
Идентификатор : 0
Формат : MPEG-4 Visual
Профиль формата : Advanced Simple@L5
Настройки формата : BVOP1 / Custom Matrix
Параметр BVOP формата : 1
Параметр QPel формата : Нет
Параметр GMC формата : Без точки перехода
Параметр матрицы формата : Выборочная
Идентификатор кодека : XVID
Идентификатор кодека/Подсказка : XviD
Продолжительность : 2 ч. 11 м.
Битрейт : 1 393 Кбит/сек
Ширина : 704 пикселя
Высота : 384 пикселя
Соотношение сторон : 1,85:1
Частота кадров : 23,976 (24000/1001) кадра/сек
Цветовое пространство : YUV
Субдискретизация насыщенности : 4:2:0
Битовая глубина : 8 бит
Тип развёртки : Прогрессивная
Метод сжатия : С потерями
Бит/(Пиксели*Кадры) : 0.215
Размер потока : 1,28 Гбайт (87%)
Библиотека кодирования : XviD 74
Аудио
Идентификатор : 1
Формат : AC-3
Формат/Информация : Audio Coding 3
Коммерческое название : Dolby Digital
Идентификатор кодека : 2000
Продолжительность : 2 ч. 11 м.
Вид битрейта : Постоянный
Битрейт : 192 Кбит/сек
Каналы : 2 канала
Channel layout : L R
Частота : 48,0 КГц
Частота кадров : 31,250 кадров/сек (1536 SPF)
Метод сжатия : С потерями
Размер потока : 180 Мбайт (12%)
Выравнивание : Разделение по промежуткам
Продолжительность промежутка : 42 мс. (1,00 видеокадр)
Время предзагрузки промежутка : 500 мс.
Service kind : Complete Main
AdGuard VPN - бесплатный, надёжный и быстрый VPN
[korsars.pro].t103524.torrent 
Торрент: Зарегистрирован [ 2024-05-21 16:01 ] · B936F2E44D48ED3199CEA4C0272DA04C075A2BE6

Скачать .torrent

Размер .torrent файла 60 KB

Статус: проверено
.torrent скачан: 1 раз
Размер: 1.47 GB
Правила

AdGuard VPN - бесплатный, надёжный и быстрый VPN
Похожие темы

Вы не зарегистрированы на нашем сайте. Вам доступна для скачивания только часть контента. Чтобы увидеть весь контент сайта, пожалуйста, зарегистрируйтесь.

Дешевый и быстрый Сидбокс
У Вас отключен VIP статус, поэтому Вам показывается реклама на сайте. Вы можете поддержать наш ресурс и приобрести VIP статус, тем самым отключив показ рекламы на сайте, а ещё VIP пользователи получают 15 инвайтов, которыми можно поделиться с друзьями или знакомыми.
Дешевый и быстрый Сидбокс
AdGuard - Интернет без рекламы и слежки в любом браузере
[Профиль] [ЛС]
Показать сообщения:    
Ответить на тему

Текущее время: 24-Июн 07:55

Часовой пояс: UTC + 4



Вы не можете начинать темы
Вы не можете отвечать на сообщения
Вы не можете редактировать свои сообщения
Вы не можете удалять свои сообщения
Вы не можете голосовать в опросах
Вы не можете прикреплять файлы к сообщениям
Вы можете скачивать файлы
Яндекс.Метрика

Материал для зрителей старше 18 летВсе материалы на сайте получены из свободных источников в сети Интернет и представлены исключительно для личного (некоммерческого) использования лицами старше 18 лет.