Скрежет металла / Twisted Metal [S01] (2023) WEB-DL 1080p от EniaHD | P2 | Кубик в Кубе

Ответить на тему
Статистика раздачи [Обновить пиров]
Размер:  14.82 GB   |    Зарегистрирован:  1 месяц 18 дней   |    .torrent скачан:  6 раз
Раздают:  249  [  0 KB/s  ]   Качают:  65  [  0 KB/s  ]   Подробная статистика пиров
   
 
Автор Сообщение

ExPlayer ®

Оффлайн

Медали


Пол: Мужской

Стаж: 9 лет 7 месяцев

Наличие запрета:

Сообщений: 61443

Откуда: korsars.pro

Отдача: 100 Mb/s

Загрузка: 100 Mb/s



AdGuard VPN - бесплатный, надёжный и быстрый VPN

Создавать темы 05-Май-2024 09:00

[Цитировать]

Скрежет металла / Twisted Metal
Страна: США
Жанр: фантастика, боевик, комедия
Год выпуска: 2023
Продолжительность: ~03:30:00 серия
Перевод 1: Профессиональный (двухголосый закадровый) - Кубик в Кубе
Перевод 2: Профессиональный (двухголосый закадровый) - Кубик в Кубе 18+
Режиссёр: Китао Сакурай, Джуд Вэн, Мэгги Кэри, Билл Бенц
В ролях: Энтони Маки, Стефани Беатриз, Джо Синоа, Уилл Арнетт, Томас Хейден Чёрч, Ричард Кебрал, Джаред Банкенс, Нив Кэмпбелл, Майкл Д. Митчелл, Тадж Вонс, Джейми Ньюманн, Дайни Родригес, Энджел Джуффриа, Шелл Рамос, Майкл Каролло
Описание: Джон Доу — острый на язык развозчик молока, который болтает так же быстро, как водит машину. Он не помнит своего имени и прошлого. Джону выпадает шанс изменить свою жизнь и занять новое место в обществе. Для этого нужно всего лишь проехать через пострадавшие в постапокалипсисе земли и доставить загадочную посылку. Вот только выжить в жестокой автомобильной бойне будет нелегко. Вместе с напарником, бывшим автоугонщиком, он столкнется с мародерами и другими проблемами, например, сумасшедшим клоуном, который водит грузовик с мороженым.
Тип релиза: WEB-DL 1080p
Контейнер: MKV
Видео: MPEG-4 AVC, 1920x960 (2.000), 23.976 fps, ~6000 kbps
Аудио 1: RUS E-AC-3, 5.1, 48 kHz, 448 kbps
Аудио 2: RUS E-AC-3, 5.1, 48 kHz, 448 kbps
Аудио 3: ENG E-AC-3, 5.1, 48 kHz, 448 kbps
Субтитры: русские, английские
Реклама: отсутствует

Список серий

01. Съездишь или нет? / WLUDRV
02. Цирк / 3RNCRCS
03. И закон победил / NTHLAW1
04. Кто там? / WHZDARE
05. Перепутье / CRZSRDS
06. Автокафе / DRVTHRU
07. Дурдом / NUTH0UZ
08. Эвелин / EV3L1N
09. Сбитый зверь / R04DK11
10. Шангри-Ла / SHNGRLA

MediaInfo

General
Complete name : Twisted.Metal.S01E01.1080p.WEB-DL.H.264-EniaHD.mkv
Format : Matroska
Format version : Version 4
File size : 1.49 GiB
Duration : 29 min 33 s
Overall bit rate : 7 241 kb/s
Frame rate : 23.976 FPS
Writing application : mkvmerge v57.0.0 ('Till The End') 64-bit
Writing library : libebml v1.4.2 + libmatroska v1.6.4
Video
ID : 1
Format : AVC
Format/Info : Advanced Video Codec
Format profile : Progressive High@L4
Format settings : CABAC / 4 Ref Frames
Format settings, CABAC : Yes
Format settings, Reference fra : 4 frames
Codec ID : V_MPEG4/ISO/AVC
Duration : 29 min 33 s
Bit rate : 6 000 kb/s
Width : 1 920 pixels
Height : 960 pixels
Display aspect ratio : 2.000
Frame rate mode : Constant
Frame rate : 23.976 (24000/1001) FPS
Color space : YUV
Chroma subsampling : 4:2:0
Bit depth : 8 bits
Scan type : Progressive
Bits/(Pixel*Frame) : 0.136
Stream size : 1.22 GiB (81%)
Writing library : x264 core 157
Encoding settings : cabac=1 / ref=4 / deblock=1:0:0 / analyse=0x3:0x133 / me=umh / subme=10 / psy=1 / psy_rd=1.00:0.00 / mixed_ref=1 / me_range=24 / chroma_me=1 / trellis=2 / 8x8dct=1 / cqm=0 / deadzone=21,11 / fast_pskip=1 / chroma_qp_offset=-2 / threads=30 / lookahead_threads=5 / sliced_threads=0 / nr=0 / decimate=1 / interlaced=0 / bluray_compat=0 / stitchable=1 / constrained_intra=0 / bframes=8 / b_pyramid=2 / b_adapt=2 / b_bias=0 / direct=3 / weightb=1 / open_gop=0 / weightp=2 / keyint=250 / keyint_min=23 / scenecut=40 / intra_refresh=0 / rc_lookahead=60 / rc=2pass / mbtree=1 / bitrate=6000 / ratetol=1.0 / qcomp=0.60 / qpmin=0 / qpmax=69 / qpstep=4 / cplxblur=20.0 / qblur=0.5 / vbv_maxrate=6600 / vbv_bufsize=12000 / nal_hrd=none / filler=0 / ip_ratio=1.40 / aq=1:1.00
Default : Yes
Forced : No
Audio #1
ID : 2
Format : E-AC-3
Format/Info : Enhanced AC-3
Commercial name : Dolby Digital Plus
Codec ID : A_EAC3
Duration : 29 min 33 s
Bit rate mode : Constant
Bit rate : 448 kb/s
Channel(s) : 6 channels
Channel layout : L R C LFE Ls Rs
Sampling rate : 48.0 kHz
Frame rate : 31.250 FPS (1536 SPF)
Compression mode : Lossy
Stream size : 94.7 MiB (6%)
Title : Русский 5.1 (Кубик в Кубе)
Language : Russian
Service kind : Complete Main
Default : Yes
Forced : No
Audio #2
ID : 3
Format : E-AC-3
Format/Info : Enhanced AC-3
Commercial name : Dolby Digital Plus
Codec ID : A_EAC3
Duration : 29 min 33 s
Bit rate mode : Constant
Bit rate : 448 kb/s
Channel(s) : 6 channels
Channel layout : L R C LFE Ls Rs
Sampling rate : 48.0 kHz
Frame rate : 31.250 FPS (1536 SPF)
Compression mode : Lossy
Stream size : 94.7 MiB (6%)
Title : Русский 5.1 (Кубик в Кубе 18+)
Language : Russian
Service kind : Complete Main
Default : No
Forced : No
Audio #3
ID : 4
Format : E-AC-3
Format/Info : Enhanced AC-3
Commercial name : Dolby Digital Plus
Codec ID : A_EAC3
Duration : 29 min 32 s
Bit rate mode : Constant
Bit rate : 448 kb/s
Channel(s) : 6 channels
Channel layout : L R C LFE Ls Rs
Sampling rate : 48.0 kHz
Frame rate : 31.250 FPS (1536 SPF)
Compression mode : Lossy
Stream size : 94.7 MiB (6%)
Title : Английский 5.1
Language : English
Service kind : Complete Main
Default : No
Forced : No
Text #1
ID : 5
Format : UTF-8
Codec ID : S_TEXT/UTF8
Codec ID/Info : UTF-8 Plain Text
Duration : 28 min 16 s
Bit rate : 78 b/s
Frame rate : 0.222 FPS
Count of elements : 377
Stream size : 16.2 KiB (0%)
Title : Русские
Language : Russian
Default : No
Forced : No
Text #2
ID : 6
Format : UTF-8
Codec ID : S_TEXT/UTF8
Codec ID/Info : UTF-8 Plain Text
Duration : 28 min 16 s
Bit rate : 51 b/s
Frame rate : 0.206 FPS
Count of elements : 350
Stream size : 10.6 KiB (0%)
Title : Английские
Language : English
Default : No
Forced : No
-
AdGuard VPN - бесплатный, надёжный и быстрый VPN
[korsars.pro].t102828.torrent 
Торрент: Зарегистрирован [ 2024-05-05 09:00 ] · DE83E0E355FE0209630390950B7F34EA6798EF25

Скачать .torrent

Размер .torrent файла 39 KB

Статус: проверено
.torrent скачан: 6 раз
Размер: 14.82 GB
Правила

AdGuard VPN - бесплатный, надёжный и быстрый VPN
Похожие темы

Вы не зарегистрированы на нашем сайте. Вам доступна для скачивания только часть контента. Чтобы увидеть весь контент сайта, пожалуйста, зарегистрируйтесь.

Дешевый и быстрый Сидбокс
У Вас отключен VIP статус, поэтому Вам показывается реклама на сайте. Вы можете поддержать наш ресурс и приобрести VIP статус, тем самым отключив показ рекламы на сайте, а ещё VIP пользователи получают 15 инвайтов, которыми можно поделиться с друзьями или знакомыми.
Дешевый и быстрый Сидбокс
AdGuard - Интернет без рекламы и слежки в любом браузере
[Профиль] [ЛС]
Показать сообщения:    
Ответить на тему

Текущее время: 24-Июн 08:44

Часовой пояс: UTC + 4



Вы не можете начинать темы
Вы не можете отвечать на сообщения
Вы не можете редактировать свои сообщения
Вы не можете удалять свои сообщения
Вы не можете голосовать в опросах
Вы не можете прикреплять файлы к сообщениям
Вы можете скачивать файлы
Яндекс.Метрика

Материал для зрителей старше 18 летВсе материалы на сайте получены из свободных источников в сети Интернет и представлены исключительно для личного (некоммерческого) использования лицами старше 18 лет.