Асока / Ahsoka [01x01-02 из 08] (2023) WEB-DL-HEVC 2160p от NewComers | 4K | HDR | P

Ответить на тему
Статистика раздачи [Обновить пиров]
Размер:  8.85 GB   |    Зарегистрирован:  9 месяцев 5 дней   |    .torrent скачан:  1 раз

Полного источника не было: Никогда

   
 
Автор Сообщение

ExPlayer ®

Оффлайн

Медали


Пол: Мужской

Стаж: 9 лет 6 месяцев

Наличие запрета:

Сообщений: 60425

Откуда: korsars.pro

Отдача: 100 Mb/s

Загрузка: 100 Mb/s



AdGuard VPN - бесплатный, надёжный и быстрый VPN

Создавать темы 25-Авг-2023 05:00

[Цитировать]


Информация о фильме
Название: Асока
Оригинальное название: Ahsoka
Год выхода: 2023
Жанр: Боевик, приключения, драма, фантастика
Режиссер: Дэйв Филони, Стеф Грин, Рик Фамуйива, Дженнифер Гетцингер, Гита Патель, Питер Рэмзи
В ролях: Розарио Доусон, Наташа Лю Бордиццо, Уэс Чэтэм, Ларс Миккельсен, Хейден Кристенсен, Дэвид Теннант, Мэри Элизабет Уинстэд, Рэй Стивенсон, Иванна Сахно, Темуэра Моррисон и другие.
О фильме:
Розарио Доусон вернулась к роли Асоки Тано, исполненной ею в сериале «Мандалорец». Персонаж был создан для мультсериала «Звёздные войны: Войны клонов» (2008), где её озвучила Эшли Экштейн, а дебют в игровом кино состоялся во втором сезоне сериала «Мандалорец». Главная героиня сериала - Асока Тано, которая во времена Войн клонов была падаваном рыцаря-джедая Энакина Скайуокера. Незадолго до падения Республики Асока по ложному обвинению была исключена из Ордена джедаев. После проведённого расследования её доброе имя было восстановлено, однако Асока затаила обиду на джедаев и не стала возвращаться в Орден. Асока охотится за гранд-адмиралом Трауном, надеясь, что сможет найти пропавшего много лет назад молодого джедая Эзру Бриджера...

Страна: США
Студия: Lucasfilm, Disney
Продолжительность: 2x ~ 00:55:00
Перевод: Профессиональный (многоголосый, закадровый) NewComers
Файл
Кодек: HEVC
Качество: WEB-DL-HEVC 2160p
Видео: HEVC HDR10, ~ 11.4 Мбит/с, 3840x2160, 24.000 кадр/с
Аудио 1: Русский / AC-3 / 5.1 / 640 kbs
Аудио 2: Английский / E-AC-3 + Dolby Atmos / 5.1 / 768 kbs
Субтитры: английские, русские
Внимание! Релиз без рекламы

MI

Общее
Уникальный идентификатор : 53449729271084129680352031207385422076 (0x28360B1D10D0DD2196BDA1CB164F58FC)
Полное имя : E:Ahsoka.S01.2160p.NewComersAhsoka.S01E01.2160p.WEB-DL.HDR.NewComers.mkv
Формат : Matroska
Версия формата : Version 4
Размер файла : 4,91 Гбайт
Продолжительность : 54 м. 43 с.
Общий поток : 12,8 Мбит/сек
Дата кодирования : UTC 2023-08-24 11:16:47
Программа кодирования : mkvmerge v61.0.0 ('So') 64-bit
Библиотека кодирования : libebml v1.4.2 + libmatroska v1.6.4
Видео
Идентификатор : 1
Формат : HEVC
Формат/Информация : High Efficiency Video Coding
Профиль формата : Main 10@L5@High
HDR format : SMPTE ST 2086, HDR10 compatible
Идентификатор кодека : V_MPEGH/ISO/HEVC
Продолжительность : 54 м. 43 с.
Битрейт : 11,4 Мбит/сек
Ширина : 3 840 пикселей
Высота : 2 160 пикселей
Соотношение сторон : 16:9
Режим частоты кадров : Постоянный
Частота кадров : 24,000 кадра/сек
Цветовое пространство : YUV
Субдискретизация насыщенности : 4:2:0
Битовая глубина : 10 бит
Бит/(Пиксели*Кадры) : 0.057
Размер потока : 4,37 Гбайт (89%)
Default : Да
Forced : Нет
Цветовой диапазон : Limited
Основные цвета : BT.2020
Характеристики трансфера : PQ
Коэффициенты матрицы : BT.2020 non-constant
Mastering display color primaries : BT.2020
Mastering display luminance : min: 0.0000 cd/m2, max: 1000 cd/m2
Аудио #1
Идентификатор : 2
Формат : AC-3
Формат/Информация : Audio Coding 3
Коммерческое название : Dolby Digital
Идентификатор кодека : A_AC3
Продолжительность : 54 м. 43 с.
Вид битрейта : Постоянный
Битрейт : 640 Кбит/сек
Каналы : 6 каналов
Channel layout : L R C LFE Ls Rs
Частота : 48,0 КГц
Частота кадров : 31,250 кадров/сек (1536 SPF)
Метод сжатия : С потерями
Размер потока : 251 Мбайт (5%)
Заголовок : NewComers
Язык : Russian
Service kind : Complete Main
Default : Да
Forced : Нет
Аудио #2
Идентификатор : 3
Формат : E-AC-3 JOC
Формат/Информация : Enhanced AC-3 with Joint Object Coding
Коммерческое название : Dolby Digital Plus with Dolby Atmos
Идентификатор кодека : A_EAC3
Продолжительность : 54 м. 43 с.
Вид битрейта : Постоянный
Битрейт : 768 Кбит/сек
Каналы : 6 каналов
Channel layout : L R C LFE Ls Rs
Частота : 48,0 КГц
Частота кадров : 31,250 кадров/сек (1536 SPF)
Метод сжатия : С потерями
Размер потока : 301 Мбайт (6%)
Язык : English
Service kind : Complete Main
Default : Да
Forced : Нет
Complexity index : 16
Number of dynamic objects : 15
Bed channel count : 1 канал
Bed channel configuration : LFE
Текст #1
Идентификатор : 4
Формат : UTF-8
Идентификатор кодека : S_TEXT/UTF8
Идентификатор кодека/Информация : UTF-8 Plain Text
Продолжительность : 49 м. 37 с.
Битрейт : 49 бит/сек
Частота кадров : 0,120 кадр/сек
Count of elements : 358
Размер потока : 18,1 Кбайт (0%)
Заголовок : Полные
Язык : Russian
Default : Да
Forced : Нет
Текст #2
Идентификатор : 5
Формат : UTF-8
Идентификатор кодека : S_TEXT/UTF8
Идентификатор кодека/Информация : UTF-8 Plain Text
Продолжительность : 48 м. 19 с.
Битрейт : 31 бит/сек
Частота кадров : 0,122 кадр/сек
Count of elements : 355
Размер потока : 11,1 Кбайт (0%)
Язык : English
Default : Нет
Forced : Нет

Скриншоты

Релиз от:
AdGuard VPN - бесплатный, надёжный и быстрый VPN
[korsars.pro].t89047.torrent 
Торрент: Зарегистрирован [ 2023-08-25 05:00 ] · A3A5A6B0A8549BD7F18C0D69378AFEC787047AE3

Скачать .torrent

Размер .torrent файла 45 KB

Статус: проверено
.torrent скачан: 1 раз
Размер: 8.85 GB
Правила

AdGuard VPN - бесплатный, надёжный и быстрый VPN
Похожие темы

Вы не зарегистрированы на нашем сайте. Вам доступна для скачивания только часть контента. Чтобы увидеть весь контент сайта, пожалуйста, зарегистрируйтесь.

Дешевый и быстрый Сидбокс
У Вас отключен VIP статус, поэтому Вам показывается реклама на сайте. Вы можете поддержать наш ресурс и приобрести VIP статус, тем самым отключив показ рекламы на сайте, а ещё VIP пользователи получают 15 инвайтов, которыми можно поделиться с друзьями или знакомыми.
Дешевый и быстрый Сидбокс
AdGuard - Интернет без рекламы и слежки в любом браузере
[Профиль] [ЛС]
Показать сообщения:    
Ответить на тему

Текущее время: 31-Май 01:18

Часовой пояс: UTC + 4



Вы не можете начинать темы
Вы не можете отвечать на сообщения
Вы не можете редактировать свои сообщения
Вы не можете удалять свои сообщения
Вы не можете голосовать в опросах
Вы не можете прикреплять файлы к сообщениям
Вы можете скачивать файлы
Анализ сайта korsars.pro Яндекс.Метрика

Материал для зрителей старше 18 летВсе материалы на сайте получены из свободных источников в сети Интернет и представлены исключительно для личного (некоммерческого) использования лицами старше 18 лет.