Мандалорец / The Mandalorian [03x01 из 08] (2023) WEB-DL-HEVC 2160p | 4K | Dolby Vision TV | P, L

Ответить на тему
Статистика раздачи [Обновить пиров]
Размер:  4.58 GB   |    Зарегистрирован:  1 год 2 месяца   |    .torrent скачан:  9 раз

Полного источника не было: 1 год 2 месяца

   
 
Автор Сообщение

ExPlayer ®

Онлайн

Медали


Пол: Мужской

Стаж: 9 лет 6 месяцев

Наличие запрета:

Сообщений: 60419

Откуда: korsars.pro

Отдача: 100 Mb/s

Загрузка: 100 Mb/s



AdGuard VPN - бесплатный, надёжный и быстрый VPN

Создавать темы 03-Мар-2023 05:00

[Цитировать]



Информация о фильме
Название: Мандалорец
Оригинальное название: The Mandalorian
Год выхода: 2023
Жанр: фантастика, боевик, приключения
Режиссер: Рик Фамуйива, Дэйв Филони, Брайс Даллас Ховард
В ролях: Педро Паскаль, Кайл Пацек, Брендан Уэйн, Бернард Баллен, Александра Гилман, Луис Ричард Гомес, Джамал Антар, Тейт Флетчер, Тони Табоада, Омид Абтахи
О фильме:
Действие сериала «Мандалорец» разворачивается во Вселенной «Звездных войн» после падения Империи и до появления Первого ордена. Главный герой, это одинокий стрелок, он наемник, который путешествует по отдаленным уголкам галактики, пытаясь выжить в тех местах, где не действуют законы Новой республики. Действие сериала до зарождения Первого Ордена. Мандалорец предпочитает действовать в одиночку. Раньше главный герой был благородным воином. Законы практически не имеют никакой силы в этом уголке Галактики, и герою придется навести порядок своими силами.
Сюжет второго сезона начинается после конца первого, когда главных героев преследует Мофф Гидеон. Во втором сезоне Мандалорец отправился на очень опасную территорию.

Страна: США
Студия: Lucasfilm Ltd., Walt Disney Studios
Продолжительность: 8 x ~00:40:00
Перевод: профессиональный многоголосый, любительский многоголосый
Файл
Формат: MP4
Кодек: H.265
Качество: WEB-DL-HEVC 2160p | 4K | Dolby Vision TV
Видео: HEVC, Dolby Vision Profile 5, ~16,5 Mбит/с, 3840x2160, 24.000 кадр/с
Аудио #1 Русский: AC3, 48.0 kHz, 5.1 ch, 384 Kbps [MVO, AlexFilm]
Аудио #2 Русский: AC3, 48.0 kHz, 2.0 ch, 192 Kbps [MVO, RuDub]
Аудио #3 Украинский: AC3, 48.0 kHz, 5.1 ch, 512 Kbps [MVO, Цікава Ідея]
Аудио #4 Украинский: AC3, 48.0 kHz, 5.1 ch, 384 Kbps [MVO, DniproFilm/HDRezka Studio]
Аудио #5 English: EAC3+Atmos, 48.0 kHz, 5.1 ch, 768 Kbps [Original]
Субтитры: русские, украинские(forced), английские(full, SDH)
Дополнительная информация:
Релиз в MP4 в 5-м профиле Dolby Vision для воспроизведении на устройствах с поддержкой DV. Протестировано на тв-боксах Nvidia Shield 2019, Zidoo Z1000 Pro, Amazon FireTV Stick 4k, TiVo Stream 4K и Ugoos AM6+ и многих других, а также на встроенных плеерах телевизоров LG, Sony, Phillips и Panasonic.
На устройствах без поддержки Dolby Vision проигрываться не будет(или будет, но с искаженными цветами), так как в видеоряде отсутствует HDR слой

Mediainfo

Общее
Полное имя : T:RELEASESThe Mandalorian 3The.Mandalorian.S03E01.2160p.DSNP.WEB-DL.DDP5.1.Atmos.DoVi.by.DVT_[CONVERTED]The.Mandalorian.S03E01.2160p.DSNP.WEB-DL.DDP5.1.Atmos.DoVi.by.DVT.mp4
Формат : MPEG-4
Профиль формата : Base Media
Идентификатор кодека : isom (isom/dby1/iso2/mp41)
Размер файла : 4,58 Гбайт
Продолжительность : 35 м. 16 с.
Режим общего битрейта : Переменный
Общий поток : 18,6 Мбит/сек
Название фильма : The.Mandalorian (2023) [S03E01] - Release by Dolby Vision Torrents
Дата пометки : UTC 2023-03-02 16:03:57
Программа кодирования : Lavf59.16.100
Обложка : Yes
Видео
Идентификатор : 1
Формат : HEVC
Формат/Информация : High Efficiency Video Coding
Профиль формата : Main 10@L5@High
HDR format : Dolby Vision, Version 1.0, dvhe.05.06, BL+RPU
Идентификатор кодека : dvhe
Идентификатор кодека/Информация : High Efficiency Video Coding with Dolby Vision
Продолжительность : 35 м. 16 с.
Битрейт : 16,3 Мбит/сек
Ширина : 3 840 пикселей
Высота : 2 160 пикселей
Соотношение сторон : 16:9
Режим частоты кадров : Постоянный
Частота кадров : 24,000 кадра/сек
Цветовое пространство : YUV
Субдискретизация насыщенности : 4:2:0
Битовая глубина : 10 бит
Бит/(Пиксели*Кадры) : 0.082
Размер потока : 4,01 Гбайт (88%)
Заголовок : The.Mandalorian (2023) [S03E01]
Язык : English
Дата пометки : UTC 2023-03-02 16:03:57
Цветовой диапазон : Full
Menus : 12
Codec configuration box : hvcC+dvcC
Аудио #1
Идентификатор : 3
Формат : AC-3
Формат/Информация : Audio Coding 3
Коммерческое название : Dolby Digital
Идентификатор кодека : ac-3
Продолжительность : 35 м. 16 с.
Вид битрейта : Постоянный
Битрейт : 448 Кбит/сек
Каналы : 6 каналов
Channel layout : L R C LFE Ls Rs
Частота : 48,0 КГц
Частота кадров : 31,250 кадров/сек (1536 SPF)
Метод сжатия : С потерями
Размер потока : 113 Мбайт (2%)
Заголовок : MVO, AlexFilm
Язык : Russian
Service kind : Complete Main
Default : Да
Alternate group : 1
Дата пометки : UTC 2023-03-02 16:03:57
Menus : 12
Аудио #2
Идентификатор : 4
Формат : AC-3
Формат/Информация : Audio Coding 3
Коммерческое название : Dolby Digital
Идентификатор кодека : ac-3
Продолжительность : 35 м. 16 с.
Вид битрейта : Постоянный
Битрейт : 192 Кбит/сек
Каналы : 2 канала
Channel layout : L R
Частота : 48,0 КГц
Частота кадров : 31,250 кадров/сек (1536 SPF)
Метод сжатия : С потерями
Размер потока : 48,4 Мбайт (1%)
Заголовок : MVO, RuDub
Язык : Russian
Service kind : Complete Main
Default : Нет
Alternate group : 1
Дата пометки : UTC 2023-03-02 16:03:57
Menus : 12
Аудио #3
Идентификатор : 5
Формат : AC-3
Формат/Информация : Audio Coding 3
Коммерческое название : Dolby Digital
Идентификатор кодека : ac-3
Продолжительность : 35 м. 16 с.
Вид битрейта : Постоянный
Битрейт : 512 Кбит/сек
Каналы : 6 каналов
Channel layout : L R C LFE Ls Rs
Частота : 48,0 КГц
Частота кадров : 31,250 кадров/сек (1536 SPF)
Метод сжатия : С потерями
Размер потока : 129 Мбайт (3%)
Заголовок : MVO, Цікава Ідея
Язык : Ukrainian
Service kind : Complete Main
Default : Нет
Alternate group : 1
Дата пометки : UTC 2023-03-02 16:03:57
Menus : 12
Аудио #4
Идентификатор : 6
Формат : AC-3
Формат/Информация : Audio Coding 3
Коммерческое название : Dolby Digital
Идентификатор кодека : ac-3
Продолжительность : 35 м. 16 с.
Вид битрейта : Постоянный
Битрейт : 384 Кбит/сек
Каналы : 6 каналов
Channel layout : L R C LFE Ls Rs
Частота : 48,0 КГц
Частота кадров : 31,250 кадров/сек (1536 SPF)
Метод сжатия : С потерями
Размер потока : 96,9 Мбайт (2%)
Заголовок : MVO, DniproFilm/HDRezka Studio
Язык : Ukrainian
Service kind : Complete Main
Default : Нет
Alternate group : 1
Дата пометки : UTC 2023-03-02 16:03:57
Menus : 12
Аудио #5
Идентификатор : 7
Формат : E-AC-3 JOC
Формат/Информация : Enhanced AC-3 with Joint Object Coding
Коммерческое название : Dolby Digital Plus with Dolby Atmos
Идентификатор кодека : ec-3
Продолжительность : 35 м. 16 с.
Вид битрейта : Постоянный
Битрейт : 768 Кбит/сек
Каналы : 6 каналов
Channel layout : L R C LFE Ls Rs
Частота : 48,0 КГц
Частота кадров : 31,250 кадров/сек (1536 SPF)
Метод сжатия : С потерями
Размер потока : 194 Мбайт (4%)
Заголовок : Original
Язык : English
Service kind : Complete Main
Default : Нет
Alternate group : 1
Дата пометки : UTC 2023-03-02 16:03:57
Menus : 12
Complexity index : Not present / 16
Number of dynamic objects : 15
Bed channel count : 1 канал
Bed channel configuration : LFE
Текст #1
Идентификатор : 8
Формат : Timed Text
Режим смешивания : sbtl
Идентификатор кодека : tx3g
Продолжительность : 32 м. 51 с.
Вид битрейта : Переменный
Битрейт : 75 бит/сек
Частота кадров : 0,250 кадр/сек
Размер потока : 18,0 Кбайт (0%)
Заголовок : Full
Язык : Russian
Default : Да
Forced : Нет
Alternate group : 3
Menus : 12
Текст #2
Идентификатор : 9
Формат : Timed Text
Режим смешивания : sbtl
Идентификатор кодека : tx3g
Продолжительность : 1 м. 18 с.
Вид битрейта : Переменный
Битрейт : 7 бит/сек
Частота кадров : 0,064 кадр/сек
Размер потока : 73,0 байт (0%)
Заголовок : Forced, HDRezka Studio
Язык : Ukrainian
Default : Нет
Forced : Нет
Alternate group : 3
Menus : 12
Текст #3
Идентификатор : 10
Формат : Timed Text
Режим смешивания : sbtl
Идентификатор кодека : tx3g
Продолжительность : 32 м. 18 с.
Вид битрейта : Переменный
Битрейт : 48 бит/сек
Частота кадров : 0,250 кадр/сек
Размер потока : 11,4 Кбайт (0%)
Заголовок : Full
Язык : English
Default : Нет
Forced : Нет
Alternate group : 3
Menus : 12
Текст #4
Идентификатор : 11
Формат : Timed Text
Режим смешивания : sbtl
Идентификатор кодека : tx3g
Продолжительность : 32 м. 18 с.
Вид битрейта : Переменный
Битрейт : 60 бит/сек
Частота кадров : 0,421 кадр/сек
Размер потока : 14,2 Кбайт (0%)
Заголовок : SDH
Язык : English
Default : Нет
Forced : Нет
Alternate group : 3
Menus : 12
Меню
00:00:04.000 : Recap
00:00:55.625 : Scene 1
00:10:12.167 : Scene 2
00:25:12.708 : Scene 3
00:32:30.375 : Credits

Скриншоты

Скриншоты получены с помощью специальной сборки плеера MPV с поддержкой Dolby Vision. Если ваше устройство не умеет проигрывать этот формат то изображение будет в сиренево-зелёной цветовой гамме
Релиз от: Dolby Vision Torrents
AdGuard VPN - бесплатный, надёжный и быстрый VPN
[korsars.pro].t79625.torrent 
Торрент: Зарегистрирован [ 2023-03-03 05:00 ] · 79EB990E4FB6FAC29C3578BAF79BB7AAED18066E

Скачать .torrent

Размер .torrent файла 92 KB

Статус: проверено
.torrent скачан: 9 раз
Размер: 4.58 GB
Правила
Тимур(03-Мар-23)

AdGuard VPN - бесплатный, надёжный и быстрый VPN
Похожие темы

Вы не зарегистрированы на нашем сайте. Вам доступна для скачивания только часть контента. Чтобы увидеть весь контент сайта, пожалуйста, зарегистрируйтесь.

Дешевый и быстрый Сидбокс
У Вас отключен VIP статус, поэтому Вам показывается реклама на сайте. Вы можете поддержать наш ресурс и приобрести VIP статус, тем самым отключив показ рекламы на сайте, а ещё VIP пользователи получают 15 инвайтов, которыми можно поделиться с друзьями или знакомыми.
Дешевый и быстрый Сидбокс
AdGuard - Интернет без рекламы и слежки в любом браузере
[Профиль] [ЛС]
Показать сообщения:    
Ответить на тему

Текущее время: 30-Май 23:23

Часовой пояс: UTC + 4



Вы не можете начинать темы
Вы не можете отвечать на сообщения
Вы не можете редактировать свои сообщения
Вы не можете удалять свои сообщения
Вы не можете голосовать в опросах
Вы не можете прикреплять файлы к сообщениям
Вы можете скачивать файлы
Анализ сайта korsars.pro Яндекс.Метрика

Материал для зрителей старше 18 летВсе материалы на сайте получены из свободных источников в сети Интернет и представлены исключительно для личного (некоммерческого) использования лицами старше 18 лет.