Мандалорец / The Mandalorian [03x01 из 08] (2023) WEB-DLRip-AVC | AlexFilm

Ответить на тему
Статистика раздачи [Обновить пиров]
Размер:  568 MB   |    Зарегистрирован:  1 год 2 месяца   |    .torrent скачан:  2 раза
DL-List: Нет

Полного источника не было: Никогда

   
 
Автор Сообщение

ExPlayer ®

Оффлайн

Медали


Пол: Мужской

Стаж: 9 лет 6 месяцев

Наличие запрета:

Сообщений: 60425

Откуда: korsars.pro

Отдача: 100 Mb/s

Загрузка: 100 Mb/s



AdGuard VPN - бесплатный, надёжный и быстрый VPN

Создавать темы 02-Мар-2023 21:00

[Цитировать]


Информация о фильме
Название: Мандалорец
Оригинальное название: The Mandalorian
Год выхода: 2023
Жанр: фантастика, фэнтези, боевик, приключения
Режиссер: Рик Фамуйива, Дэйв Филони, Брайс Даллас Ховард
В ролях: Педро Паскаль, Джина Карано, Джанкарло Эспозито, Карл Уэзерс, Темуэра Моррисон, Мин-На Вэнь, Ник Нолти, Кэти Сакхофф, Омид Абтахи, Розарио Доусон и другие.
О фильме:
Одинокий мандалорец-наёмник живёт на краю обитаемой галактики, куда не дотягивается закон Новой Республики. Представитель некогда могучей расы благородных воинов теперь вынужден влачить жалкое существование среди отбросов общества.

Страна: США
Продолжительность: ~00:35:00 серия
Перевод: Профессиональный (многоголосый, закадровый) AlexFilm
Файл
Кодек: MKV
Качество: WEB-DLRip-AVC
Видео: AVC, 1024x432 (2,40:1), 1800 kbps (0.170 b/px), 24.000 fps
Звук: AC3, 448 kbps (CBR), 48.0 KHz (16 bits), 6 ch, Russian |Многоголосый закадровый, AlexFilm
Субтитры:
отсутствуют
РЕКЛАМЫ НЕТ

MediaInfo

Общее
Уникальный идентификатор : 285649837300972067161505814312509220020 (0xD6E62853ABF2C49F8C5682E1E92FA4B4)
Полное имя : E:сериалыThe.Mandalorian.S03E01.WEB-DLRip-AVC.TR.mkv
Формат : Matroska
Версия формата : Version 4
Размер файла : 568 Мбайт
Продолжительность : 35 м. 16 с.
Общий поток : 2 250 Кбит/сек
Дата кодирования : UTC 2023-03-02 10:01:25
Программа кодирования : mkvmerge v35.0.0 ('All The Love In The World') 64-bit
Библиотека кодирования : libebml v1.3.9 + libmatroska v1.5.2
Видео
Идентификатор : 1
Формат : AVC
Формат/Информация : Advanced Video Codec
Профиль формата : High@L4.1
Настройки формата : CABAC / 9 Ref Frames
Параметр CABAC формата : Да
Параметр RefFrames формата : 9 кадров
Идентификатор кодека : V_MPEG4/ISO/AVC
Продолжительность : 35 м. 16 с.
Битрейт : 1 800 Кбит/сек
Ширина : 1 024 пикселя
Высота : 432 пикселя
Соотношение сторон : 2,40:1
Режим частоты кадров : Постоянный
Частота кадров : 24,000 кадра/сек
Цветовое пространство : YUV
Субдискретизация насыщенности : 4:2:0
Битовая глубина : 8 бит
Тип развёртки : Прогрессивная
Бит/(Пиксели*Кадры) : 0.170
Размер потока : 454 Мбайт (80%)
Заголовок : TRIAX2009
Библиотека кодирования : x264 core 146 r2538 121396c
Настройки программы : cabac=1 / ref=9 / deblock=1:-2:-1 / analyse=0x3:0x113 / me=umh / subme=10 / psy=1 / psy_rd=1.00:0.15 / mixed_ref=1 / me_range=32 / chroma_me=1 / trellis=2 / 8x8dct=1 / cqm=0 / deadzone=21,11 / fast_pskip=0 / chroma_qp_offset=-3 / threads=30 / lookahead_threads=3 / sliced_threads=0 / nr=0 / decimate=1 / interlaced=0 / bluray_compat=0 / constrained_intra=0 / bframes=8 / b_pyramid=2 / b_adapt=2 / b_bias=0 / direct=3 / weightb=1 / open_gop=0 / weightp=2 / keyint=240 / keyint_min=23 / scenecut=40 / intra_refresh=0 / rc_lookahead=40 / rc=2pass / mbtree=0 / bitrate=1800 / ratetol=1.0 / qcomp=0.60 / qpmin=0 / qpmax=69 / qpstep=4 / cplxblur=20.0 / qblur=0.5 / vbv_maxrate=14000 / vbv_bufsize=14000 / nal_hrd=none / filler=0 / ip_ratio=1.40 / pb_ratio=1.30 / aq=1:1.00
Default : Да
Forced : Нет
Аудио
Идентификатор : 2
Формат : AC-3
Формат/Информация : Audio Coding 3
Коммерческое название : Dolby Digital
Идентификатор кодека : A_AC3
Продолжительность : 35 м. 16 с.
Вид битрейта : Постоянный
Битрейт : 448 Кбит/сек
Каналы : 6 каналов
Channel layout : L R C LFE Ls Rs
Частота : 48,0 КГц
Частота кадров : 31,250 кадров/сек (1536 SPF)
Метод сжатия : С потерями
Размер потока : 113 Мбайт (20%)
Заголовок : AlexFilm
Язык : Russian
Service kind : Complete Main
Default : Да
Forced : Нет

Раздача ведется путем добавления новых серий

Когда раздача ведётся путём добавления новых серий, при каждом добавлении создётся новый торрент. Чтобы начать докачку новой серии, пользователям необходимо сделать следующее:
(1) остановить скачивание,
(2) удалить старый торрент у себя из клиента (старые серии удалять не надо),
(3) скачать новый торрент и запустить его у себя в клиенте вместо старого, при этом указать клиенту путь в старую папку, куда и должно происходить скачивание новых серий.
Ваш клиент при этом должен произвести хеширование (проверку) старой папки (если не производит сам - помогите ему сделать это), и будет докачивать только те серии, которых у вас ещё нет. Старые серии при этом не удаляются, а продолжают раздаваться!
Eсли вы уже удалили старые серии, то предотвратить повторную закачку старых серий можно, отжав галочку в соответствующих местах при запуске нового торрента. По возможности, желательно не удалять старые серии как можно дольше, чтобы релизер не столько продолжал раздавать старые серии, а смог сконцентрироваться на новых.

Скриншоты

AdGuard VPN - бесплатный, надёжный и быстрый VPN
[korsars.pro].t79584.torrent 
Торрент: Зарегистрирован [ 2023-03-02 21:00 ] · C91C051C78BCAF650932B90A1EB9598551C861BA

Скачать .torrent

Размер .torrent файла 12 KB

Статус: проверено
.torrent скачан: 2 раз
Размер: 568 MB
Правила

AdGuard VPN - бесплатный, надёжный и быстрый VPN
Похожие темы

Вы не зарегистрированы на нашем сайте. Вам доступна для скачивания только часть контента. Чтобы увидеть весь контент сайта, пожалуйста, зарегистрируйтесь.

Дешевый и быстрый Сидбокс
У Вас отключен VIP статус, поэтому Вам показывается реклама на сайте. Вы можете поддержать наш ресурс и приобрести VIP статус, тем самым отключив показ рекламы на сайте, а ещё VIP пользователи получают 15 инвайтов, которыми можно поделиться с друзьями или знакомыми.
Дешевый и быстрый Сидбокс
AdGuard - Интернет без рекламы и слежки в любом браузере
[Профиль] [ЛС]
Показать сообщения:    
Ответить на тему

Текущее время: 31-Май 00:10

Часовой пояс: UTC + 4



Вы не можете начинать темы
Вы не можете отвечать на сообщения
Вы не можете редактировать свои сообщения
Вы не можете удалять свои сообщения
Вы не можете голосовать в опросах
Вы не можете прикреплять файлы к сообщениям
Вы можете скачивать файлы
Анализ сайта korsars.pro Яндекс.Метрика

Материал для зрителей старше 18 летВсе материалы на сайте получены из свободных источников в сети Интернет и представлены исключительно для личного (некоммерческого) использования лицами старше 18 лет.