М3ган / M3GAN (2022) WEB-DLRip-AVC от DoMiNo & селезень | P | Jaskier

Ответить на тему
Статистика раздачи [Обновить пиров]
Размер:  745 MB   |    Зарегистрирован:  1 год 2 месяца   |    .torrent скачан:  0 раз
Раздают:  84  [  0 KB/s  ]   Качают:  9  [  0 KB/s  ]   Подробная статистика пиров
   
 
Автор Сообщение

4udaki ®

Оффлайн

Медали


Пол: Мужской

Стаж: 9 лет 5 месяцев

Наличие запрета:

Сообщений: 58875

Откуда: korsars.pro

Отдача: 100 Mb/s

Загрузка: 100 Mb/s



AdGuard VPN - бесплатный, надёжный и быстрый VPN

Создавать темы 28-Янв-2023 01:00

[Цитировать]

Информация о фильме
Название: М3ган
Оригинальное название: M3GAN
Год выпуска: 2022
Выпущено: Новая Зеландия
Жанр: Ужасы, Фантастика, триллер
Режиссер: Джерард Джонстоун / Gerard Johnstone
В ролях: Эллисон Уильямс, Кимберли Кроссман, Вайолет Макгроу, Ронни Чиэн, Эми Дональд, Дженна Дэвис, Брайан Джордан Альварез, Джен Браун, Стефан Гарно, Лори Дунги, Эми Ашервуд, Джек Кэссиди, Майкл Сассенте, Samson Chan-Boon, Наташа Коджич
О фильме:
10-летняя Кэди вместе с папой и мамой попадает в автоаварию. Родители погибают, а девочка отправляется жить к тёте Джемме — сотруднице корпорации по производству технологичных игрушек. Не зная, как справиться с внезапно свалившейся на неё ответственностью, и не особо желая тратить на племянницу время, Джемма знакомит Кэди с экспериментальной куклой-андроидом М3ган, обладающей искусственным интеллектом. Первостепенной задачей новой «подружки» является защита ребёнка от всевозможного физического и морального вреда, и М3ган понимает это слишком буквально.

Страна: США, Новая Зеландия
Студия: Atomic Monster, Blumhouse Productions, Divide / Conquer, New Zealand Film Commission, Universal Pictures
Продолжительность: 01:41:56
Перевод: Профессиональный (многоголосый, закадровый) | Jaskier
Субтитры: Английские (Full, SDH)
Файл
Формат: Matroska
Качество: WEB-DLRip-AVC
Видео: 720x302 at 23.976 fps, x264@L4.1, ~926 kbps
Аудио: AAC, 2 ch, ~96 kbps - | Русский |
Формат субтитров: softsub (SRT)
***Рип от: -=DoMiNo=-

M/I

x264 [info]: frame I:1605 Avg QP:13.56 size: 35478
x264 [info]: frame P:32188 Avg QP:16.30 size: 9880
x264 [info]: frame B:112845 Avg QP:18.18 size: 2944
x264 [info]: consecutive B-frames: 2.6% 2.1% 6.0% 33.1% 14.3% 23.7% 7.7% 7.2% 1.2% 0.7% 0.5% 0.5% 0.6%
General
Unique ID : 65684046080829118641973180859468940024 (0x316A4980CC6586F069CC124B02FF02F8)
Complete name : D:M3GAN.2022.WEB-DLRip.x264.seleZen.mkv
Format : Matroska
Format version : Version 4
File size : 745 MiB
Duration : 1 h 41 min
Overall bit rate : 1 022 kb/s
Movie name : M3GAN.2022.WEB-DLRip.x264.seleZen
Encoded date : UTC 2023-01-27 15:22:06
Writing application : mkvmerge v73.0.0 ('25 or 6 to 4') 64-bit
Writing library : libebml v1.4.4 + libmatroska v1.7.1
Cover : Yes
Attachments : cover.jpg / small_cover.jpg
Video
ID : 1
Format : AVC
Format/Info : Advanced Video Codec
Format profile : High@L4.1
Format settings : CABAC / 12 Ref Frames
Format settings, CABAC : Yes
Format settings, Reference : 12 frames
Codec ID : V_MPEG4/ISO/AVC
Duration : 1 h 41 min
Bit rate : 926 kb/s
Width : 720 pixels
Height : 302 pixels
Display aspect ratio : 2.40:1
Frame rate mode : Constant
Frame rate : 23.976 (24000/1001) FPS
Color space : YUV
Chroma subsampling : 4:2:0
Bit depth : 8 bits
Scan type : Progressive
Bits/(Pixel*Frame) : 0.178
Stream size : 674 MiB (91%)
Title : -=DoMiNo=-
Writing library : x264 core 164 by -=DoMiNo=-
Encoding settings : cabac=1 / ref=12 / deblock=1:-2:-1 / analyse=0x3:0x133 / me=umh / subme=10 / psy=1 / psy_rd=1.02:0.03 / mixed_ref=1 / me_range=32 / chroma_me=1 / trellis=2 / 8x8dct=1 / cqm=0 / deadzone=21,11 / fast_pskip=0 / chroma_qp_offset=-3 / threads=18 / lookahead_threads=2 / sliced_threads=0 / nr=0 / decimate=1 / interlaced=0 / bluray_compat=0 / constrained_intra=0 / bframes=12 / b_pyramid=2 / b_adapt=2 / b_bias=0 / direct=3 / weightb=1 / open_gop=0 / weightp=2 / keyint=240 / keyint_min=23 / scenecut=40 / intra_refresh=0 / rc=2pass / mbtree=0 / bitrate=926 / ratetol=1.0 / qcomp=0.70 / qpmin=0 / qpmax=69 / qpstep=4 / cplxblur=20.0 / qblur=0.5 / ip_ratio=1.35 / pb_ratio=1.25 / aq=2:0.90
Language : English
Default : Yes
Forced : No
Color range : Limited
Matrix coefficients : BT.709
Audio
ID : 2
Format : AAC LC SBR
Format/Info : Advanced Audio Codec Low Complexity with Spectral Band Replication
Commercial name : HE-AAC
Format settings : Explicit
Codec ID : A_AAC-2
Duration : 1 h 41 min
Bit rate : 96.0 kb/s
Channel(s) : 2 channels
Channel layout : L R
Sampling rate : 48.0 kHz
Frame rate : 23.438 FPS (2048 SPF)
Compression mode : Lossy
Stream size : 69.0 MiB (9%)
Title : MVO_[Jaskier]
Language : Russian
Default : Yes
Forced : Yes
Text #1
ID : 3
Format : UTF-8
Codec ID : S_TEXT/UTF8
Codec ID/Info : UTF-8 Plain Text
Duration : 1 h 41 min
Bit rate : 69 b/s
Frame rate : 0.271 FPS
Count of elements : 1648
Stream size : 51.4 KiB (0%)
Title : Full
Language : English
Default : No
Forced : No
Text #2
ID : 4
Format : UTF-8
Codec ID : S_TEXT/UTF8
Codec ID/Info : UTF-8 Plain Text
Duration : 1 h 41 min
Bit rate : 76 b/s
Frame rate : 0.306 FPS
Count of elements : 1870
Stream size : 57.4 KiB (0%)
Title : SDH
Language : English
Default : No
Forced : No
Menu
00:00:00.000 : en:Глава 01
00:08:20.000 : en:Глава 02
00:16:40.000 : en:Глава 03
00:25:00.000 : en:Глава 04
00:33:20.000 : en:Глава 05
00:41:40.000 : en:Глава 06
00:50:00.000 : en:Глава 07
00:58:20.000 : en:Глава 08
01:06:40.000 : en:Глава 09
01:15:00.000 : en:Глава 10
01:23:20.000 : en:Глава 11
01:31:40.000 : en:Глава 12
01:40:00.000 : en:Глава 13
Релиз: Присоединяйся к: Кликай на баннеры.
AdGuard VPN - бесплатный, надёжный и быстрый VPN
[korsars.pro].t77325.torrent 
Торрент: Зарегистрирован [ 2023-01-28 01:00 ] · 1FE2A3AA4DC0D1C0869451DCE5D4B337C697A6E8

Скачать .torrent

Размер .torrent файла 30 KB

Статус: проверено
.torrent скачан: 0 раз
Размер: 745 MB
Правила
AdGuard VPN - бесплатный, надёжный и быстрый VPN
Похожие темы

Вы не зарегистрированы на нашем сайте. Вам доступна для скачивания только часть контента. Чтобы увидеть весь контент сайта, пожалуйста, зарегистрируйтесь.

Дешевый и быстрый Сидбокс
У Вас отключен VIP статус, поэтому Вам показывается реклама на сайте. Вы можете поддержать наш ресурс и приобрести VIP статус, тем самым отключив показ рекламы на сайте, а ещё VIP пользователи получают 15 инвайтов, которыми можно поделиться с друзьями или знакомыми.
Дешевый и быстрый Сидбокс
[Профиль] [ЛС]
Показать сообщения:    
Ответить на тему

Текущее время: 23-Апр 17:16

Часовой пояс: UTC + 4



Вы не можете начинать темы
Вы не можете отвечать на сообщения
Вы не можете редактировать свои сообщения
Вы не можете удалять свои сообщения
Вы не можете голосовать в опросах
Вы не можете прикреплять файлы к сообщениям
Вы можете скачивать файлы
Анализ сайта korsars.pro Яндекс.Метрика

Материал для зрителей старше 18 летВсе материалы на сайте получены из свободных источников в сети Интернет и представлены исключительно для личного (некоммерческого) использования лицами старше 18 лет.