Кунг-фу Панда: Рыцарь дракона / Kung Fu Panda: The Dragon Knight [S02] (2023) WEB-DL 1080p | D

Ответить на тему
Статистика раздачи [Обновить пиров]
Размер:  12,87 GB   |    Зарегистрирован:  1 год 2 месяца   |    .torrent скачан:  1 раз
Раздают:  185  [  0 KB/s  ]   Качают:  93  [  0 KB/s  ]   Подробная статистика пиров
   
 
Автор Сообщение

4udaki ®

Оффлайн

Медали


Пол: Мужской

Стаж: 9 лет 5 месяцев

Наличие запрета:

Сообщений: 58875

Откуда: korsars.pro

Отдача: 100 Mb/s

Загрузка: 100 Mb/s



AdGuard VPN - бесплатный, надёжный и быстрый VPN

Создавать темы 27-Янв-2023 05:00

[Цитировать]

Название: Кунг-фу Панда: Рыцарь дракона
Оригинальное название: Kung Fu Panda: The Dragon Knight
Страна: США
Год выпуска: 2023
Жанр: мультфильм, фэнтези, боевик, комедия, приключения, семейный
Продолжительность: ~00:24:00 серия
Перевод: Профессиональный (дублированный) | студия "Видеофильм" по заказу Netflix
Режиссёр: Дэвид Дик, Майкл Гогуэн, Джеймс Янг
Роли озвучивали: Джек Блэк, Рита Ора, Мик Уингерт, Крис Гир, Делла Саба, Тодд Хаберкорн, Ранума Пантаки, Тру Валентино, Джеймс Хун, Эд Викс, Стефани Сюй, Парри Шен, Омид Абтахи, Нолан Норт
Описание: Легендарный воин По и благородный английский рыцарь пытаются спасти магическое оружие, свою репутацию, а заодно и весь мир! Добродушный По и рыцари дракона путешествуют по миру в поисках легендарных артефактов Тянь-Шаня. Удастся ли им опередить злодеев и добраться до орудий первыми?

Качество: WEB-DL 1080p
Контейнер: MKV
Видео: AVC, 1920x1080 (16:9), 23.976 fps, ~3421 kbps
Аудио №1 Rus: E-AC3, 48 kHz, 6 ch, 640 kbps
Аудио №2 Ukr: E-AC3, 48 kHz, 6 ch, 640 kbps
Аудио №3 Eng: E-AC3, 48 kHz, 6 ch, 640 kbps
Субтитры: Русские, украинские, английские (SDH)
Реклама: Отсутствует

MediaInfo

General
Unique ID : 159412663096825330927815692890471273177 (0x77EDC31B6D95682B599E7B4F6CB612D9)
Complete name : Kung.Fu.Panda.The.Dragon.Knight.S02E01.The.Liar.and.the.Thief.1080p.NF.WEB-DL.DDP5.1.H.264-EniaHD.mkv
Format : Matroska
Format version : Version 4
File size : 933 MiB
Duration : 24 min 24 s
Overall bit rate mode : Variable
Overall bit rate : 5 343 kb/s
Writing application : mkvmerge v57.0.0 ('Till The End') 64-bit
Writing library : libebml v1.4.2 + libmatroska v1.6.4
Video
ID : 1
Format : AVC
Format/Info : Advanced Video Codec
Format profile : Main@L4
Format settings : CABAC / 3 Ref Frames
Format settings, CABAC : Yes
Format settings, Reference fra : 3 frames
Codec ID : V_MPEG4/ISO/AVC
Duration : 24 min 24 s
Bit rate mode : Variable
Bit rate : 3 421 kb/s
Nominal bit rate : 2 944 kb/s
Maximum bit rate : 6 330 kb/s
Width : 1 920 pixels
Height : 1 080 pixels
Display aspect ratio : 16:9
Frame rate mode : Constant
Frame rate : 23.976 (24000/1001) FPS
Color space : YUV
Chroma subsampling : 4:2:0
Bit depth : 8 bits
Scan type : Progressive
Bits/(Pixel*Frame) : 0.069
Stream size : 597 MiB (64%)
Writing library : x264 core 148 r2727 7d026e8
Encoding settings : cabac=1 / ref=3 / deblock=1:0:0 / analyse=0x1:0x111 / me=umh / subme=10 / psy=1 / psy_rd=1.00:0.00 / mixed_ref=1 / me_range=24 / chroma_me=1 / trellis=2 / 8x8dct=0 / cqm=0 / deadzone=21,11 / fast_pskip=1 / chroma_qp_offset=-2 / threads=8 / lookahead_threads=1 / sliced_threads=0 / nr=0 / decimate=1 / interlaced=0 / bluray_compat=0 / stitchable=1 / constrained_intra=0 / bframes=2 / b_pyramid=0 / b_adapt=2 / b_bias=0 / direct=3 / weightb=1 / open_gop=0 / weightp=2 / keyint=250 / keyint_min=23 / scenecut=0 / intra_refresh=0 / rc_lookahead=48 / rc=2pass / mbtree=1 / bitrate=2944 / ratetol=1.0 / qcomp=0.50 / qpmin=6 / qpmax=51 / qpstep=4 / cplxblur=20.0 / qblur=0.5 / vbv_maxrate=6330 / vbv_bufsize=8440 / nal_hrd=vbr / filler=0 / ip_ratio=1.40 / aq=1:1.00
Default : Yes
Forced : No
Audio #1
ID : 2
Format : E-AC-3
Format/Info : Enhanced AC-3
Commercial name : Dolby Digital Plus
Codec ID : A_EAC3
Duration : 24 min 24 s
Bit rate mode : Constant
Bit rate : 640 kb/s
Channel(s) : 6 channels
Channel layout : L R C LFE Ls Rs
Sampling rate : 48.0 kHz
Frame rate : 31.250 FPS (1536 SPF)
Compression mode : Lossy
Stream size : 112 MiB (12%)
Title : Russian
Language : Russian
Service kind : Complete Main
Default : Yes
Forced : No
Audio #2
ID : 3
Format : E-AC-3
Format/Info : Enhanced AC-3
Commercial name : Dolby Digital Plus
Codec ID : A_EAC3
Duration : 24 min 24 s
Bit rate mode : Constant
Bit rate : 640 kb/s
Channel(s) : 6 channels
Channel layout : L R C LFE Ls Rs
Sampling rate : 48.0 kHz
Frame rate : 31.250 FPS (1536 SPF)
Compression mode : Lossy
Stream size : 112 MiB (12%)
Title : Ukrainian
Language : Ukrainian
Service kind : Complete Main
Default : No
Forced : No
Audio #3
ID : 4
Format : E-AC-3
Format/Info : Enhanced AC-3
Commercial name : Dolby Digital Plus
Codec ID : A_EAC3
Duration : 24 min 24 s
Bit rate mode : Constant
Bit rate : 640 kb/s
Channel(s) : 6 channels
Channel layout : L R C LFE Ls Rs
Sampling rate : 48.0 kHz
Frame rate : 31.250 FPS (1536 SPF)
Compression mode : Lossy
Stream size : 112 MiB (12%)
Title : English
Language : English
Service kind : Complete Main
Default : No
Forced : No
Text #1
ID : 5
Format : UTF-8
Codec ID : S_TEXT/UTF8
Codec ID/Info : UTF-8 Plain Text
Duration : 23 min 4 s
Bit rate : 80 b/s
Count of elements : 293
Stream size : 13.7 KiB (0%)
Title : Russian
Language : Russian
Default : No
Forced : No
Text #2
ID : 6
Format : UTF-8
Codec ID : S_TEXT/UTF8
Codec ID/Info : UTF-8 Plain Text
Duration : 23 min 4 s
Bit rate : 80 b/s
Count of elements : 291
Stream size : 13.6 KiB (0%)
Title : Ukrainian
Language : Ukrainian
Default : No
Forced : No
Text #3
ID : 7
Format : UTF-8
Codec ID : S_TEXT/UTF8
Codec ID/Info : UTF-8 Plain Text
Duration : 22 min 19 s
Bit rate : 66 b/s
Count of elements : 382
Stream size : 10.9 KiB (0%)
Title : English (SDH)
Language : English
Default : No
Forced : No

Скриншоты

AdGuard VPN - бесплатный, надёжный и быстрый VPN
[korsars.pro].t77260.torrent 
Торрент: Зарегистрирован [ 2023-01-27 05:00 ] · 0F74D5F82A2EADFC015E3A691C6B74AD2BB40B85

Скачать .torrent

Размер .torrent файла 35 KB

Статус: проверено
.torrent скачан: 1 раз
Размер: 12,87 GB
Правила
AdGuard VPN - бесплатный, надёжный и быстрый VPN
Похожие темы

Вы не зарегистрированы на нашем сайте. Вам доступна для скачивания только часть контента. Чтобы увидеть весь контент сайта, пожалуйста, зарегистрируйтесь.

Дешевый и быстрый Сидбокс
У Вас отключен VIP статус, поэтому Вам показывается реклама на сайте. Вы можете поддержать наш ресурс и приобрести VIP статус, тем самым отключив показ рекламы на сайте, а ещё VIP пользователи получают 15 инвайтов, которыми можно поделиться с друзьями или знакомыми.
Дешевый и быстрый Сидбокс
[Профиль] [ЛС]
Показать сообщения:    
Ответить на тему

Текущее время: 23-Апр 17:24

Часовой пояс: UTC + 4



Вы не можете начинать темы
Вы не можете отвечать на сообщения
Вы не можете редактировать свои сообщения
Вы не можете удалять свои сообщения
Вы не можете голосовать в опросах
Вы не можете прикреплять файлы к сообщениям
Вы можете скачивать файлы
Анализ сайта korsars.pro Яндекс.Метрика

Материал для зрителей старше 18 летВсе материалы на сайте получены из свободных источников в сети Интернет и представлены исключительно для личного (некоммерческого) использования лицами старше 18 лет.